Генлок / gen:Lock / Сезон: 1 / Серии: 1 из 8 (Гари Дж. Хэддок / Gray G. Haddock) [2019, США, фантастика, приключения, WEBRip 1080p] DVO (NewStation) + Rus, Eng Sub

Reply to topic
DL-List and Torrent activity
Size:  1.19 GB   |    Registered:  2 months 21 day   |    Completed:  0 times

Seeder not seen: 2 months 2 days

 
   
 
 
Author Message

star21 ®

Gender: Female

Longevity: 3 years 5 months

Posts: 552372

Location: Екатеринбург

Post 02-Feb-2019 14:30

[Quote]

Генлок / gen:Lock Страна: США
Жанр: фантастика, приключения
Продолжительность серии: ~ 00:32:07
Год выпуска: 2019
Перевод: Любительский (двухголосый закадровый), [NewStation]
Русские субтитры: естьРежиссёр: Гари Дж. Хэддок / Gray G. Haddock
Роли озвучивали: Дакота Фаннинг, Дэвид Теннант, Майкл Б. Джордан, Майлз Луна, Моника Риал, Сесар Альтаграция, Голшифте Фарахани, Гари Дж. ХэддокОписание: Сюжет мультсериала расскажет о юных рекрутах-пилотах, способных управлять механическими робо-гигантами следующего поколения, которые должны положить конец глобальной войне. Однако, за их новообретенные способности придется немало заплатить.Список серий:
01 Пилот / PilotДоп. информация: Присутствует ненормативная лексика!Семпл: http://multi-up.com/1222403
Предыдущие и альтернативные раздачиКачество: WEBRip
Формат: MKV
Видео: AVC, 1920x1080, 16:9, 24 кадров/сек, ~4800 Кбит/сек
Аудио #1: [RUS] 48 kHz, AC-3, 2ch, ~256 kbps
Аудио #2: [ENG] 48 kHz, AAC, 2ch, ~132 kbp
Субтитры: Русские (Константин Крей), английские

Подробные технические данные

ОбщееУникальный идентификатор                 : 244510375160431863709590942949066516276 (0xB7F2FC3E28E8A1A7A878E68615F5A734)Полное имя                               : F:\NewStation\GenLock.s01.WEBRip.1080p.NewStation\[1920x1080] The Pilot - Rooster Teeth.mkvФормат                                   : MatroskaВерсия формата                           : Version 4 / Version 2Размер файла                             : 1,19 ГбайтПродолжительность                        : 32 м. 7 с.Общий поток                              : 5294 Кбит/секДата кодирования                         : UTC 2019-02-01 21:28:07Программа кодирования                    : mkvmerge v28.1.0 ('Morning Child') 64-bitБиблиотека кодирования                   : libebml v1.3.6 + libmatroska v1.4.9ВидеоИдентификатор                            : 1Формат                                   : AVCФормат/Информация                        : Advanced Video CodecПрофиль формата                          : Main@L3.1Настройки формата                        : CABAC / 4 Ref FramesПараметр CABAC формата                   : ДаПараметр RefFrames формата               : 4 кадраИдентификатор кодека                     : V_MPEG4/ISO/AVCПродолжительность                        : 32 м. 7 с.Битрейт                                  : 4800 Кбит/секШирина                                   : 1920 пикселейВысота                                   : 1080 пикселейСоотношение сторон                       : 16:9Режим частоты кадров                     : ПостоянныйЧастота кадров                           : 24,000 кадра/секЦветовое пространство                    : YUVСубдискретизация насыщенности            : 4:2:0Битовая глубина                          : 8 битТип развёртки                            : ПрогрессивнаяБит/(Пиксели*Кадры)                      : 0.096Размер потока                            : 1,10 Гбайт (93%)Библиотека кодирования                   : x264 core 148Настройки программы                      : cabac=1 / ref=3 / deblock=1:0:0 / analyse=0x1:0x111 / me=hex / subme=7 / psy=1 / psy_rd=1.00:0.00 / mixed_ref=1 / me_range=16 / chroma_me=1 / trellis=1 / 8x8dct=0 / cqm=0 / deadzone=21,11 / fast_pskip=1 / chroma_qp_offset=-2 / threads=34 / lookahead_threads=5 / sliced_threads=0 / nr=0 / decimate=1 / interlaced=0 / bluray_compat=0 / constrained_intra=0 / bframes=3 / b_pyramid=2 / b_adapt=1 / b_bias=0 / direct=1 / weightb=1 / open_gop=0 / weightp=2 / keyint=96 / keyint_min=9 / scenecut=0 / intra_refresh=0 / rc_lookahead=40 / rc=abr / mbtree=1 / bitrate=4800 / ratetol=1.0 / qcomp=0.60 / qpmin=0 / qpmax=69 / qpstep=4 / ip_ratio=1.40 / aq=1:1.00Default                                  : ДаForced                                   : НетЦветовой диапазон                        : LimitedОсновные цвета                           : BT.709Характеристики трансфера                 : BT.709Коэффициенты матрицы                     : BT.709Аудио #1Идентификатор                            : 2Формат                                   : AC-3Формат/Информация                        : Audio Coding 3Идентификатор кодека                     : A_AC3Продолжительность                        : 32 м. 7 с.Вид битрейта                             : ПостоянныйБитрейт                                  : 256 Кбит/секКаналы                                   : 2 каналаРасположение каналов                     : Front: L RЧастота                                  : 48,0 КГцЧастота кадров                           : 31,250 кадров/сек (1536 SPF)Битовая глубина                          : 16 битМетод сжатия                             : С потерямиЗадержка видео                           : -46 мс.Размер потока                            : 58,8 Мбайт (5%)Заголовок                                : NewStationЯзык                                     : RussianServiceKind/String                       : Complete MainDefault                                  : ДаForced                                   : НетАудио #2Идентификатор                            : 3Формат                                   : AACФормат/Информация                        : Advanced Audio CodecПрофиль формата                          : LCИдентификатор кодека                     : A_AAC-2Продолжительность                        : 32 м. 7 с.Битрейт                                  : 132 Кбит/секКаналы                                   : 1 каналРасположение каналов                     : Front: CЧастота                                  : 44,1 КГцЧастота кадров                           : 43,066 кадра/сек (1024 SPF)Метод сжатия                             : С потерямиЗадержка видео                           : -46 мс.Размер потока                            : 30,0 Мбайт (2%)Заголовок                                : OriginalDefault                                  : НетForced                                   : НетТекст #1Идентификатор                            : 4Формат                                   : UTF-8Идентификатор кодека                     : S_TEXT/UTF8Идентификатор кодека/Информация          : UTF-8 Plain TextПродолжительность                        : 29 м. 55 с.Битрейт                                  : 72 бит/секElementCount                             : 322Размер потока                            : 16,0 Кбайт (0%)Заголовок                                : Константин КрейЯзык                                     : RussianDefault                                  : НетForced                                   : НетТекст #2Идентификатор                            : 5Формат                                   : UTF-8Идентификатор кодека                     : S_TEXT/UTF8Идентификатор кодека/Информация          : UTF-8 Plain TextПродолжительность                        : 31 м. 23 с.Битрейт                                  : 57 бит/секElementCount                             : 509Размер потока                            : 13,3 Кбайт (0%)Заголовок                                : OriginalЯзык                                     : EnglishDefault                                  : НетForced                                   : Нет

Скриншоты


To download the content you need:
1. Download and install torrent client [for Windows] or for mobile system
2. Click on [Download]
Attention.
If the test YOU are NOT a ROBOT - does not work, then You are using an outdated browser.
Install the current browser and click on [Download]
Security: torrent client is allowed by Kaspersky.

[asmlocator.ru].t605501.torrent 
Torrent: Registered [ 2019-02-02 14:30 ] · 7B97816F08483DF287FEA6D125A88A4AE395AD89

Download .torrent

Download

12 KB

Status: checked
Completed: 0 times
Size: 1.19 GB
terms.php
[Profile] [PM]
Display posts:    
Reply to topic

Current time is: 24-Apr 12:51

All times are UTC ± 0



You cannot post new topics in this forum
You cannot reply to topics in this forum
You cannot edit your posts in this forum
You cannot delete your posts in this forum
You cannot vote in polls in this forum
You cannot attach files in this forum
You can download files in this forum