Лунный свет: Коллекция в 3Д / Lichtmond Collection 3D (Джорджио Коппехели) [2016, Документальный, видовой, музыка, релаксация, BDRip-HEVC, 1080p] OverUnder / Вертикальная стереопара

Reply to topic
DL-List and Torrent activity
Size:  27.72 GB   |    Registered:  2 months 24 days   |    Completed:  0 times

Seeder not seen: Never

 
   
 
 
Author Message

star21 ®

Gender: Female

Longevity: 3 years 5 months

Posts: 552370

Location: Екатеринбург

Post 01-Feb-2019 21:55

[Quote]

Лунный свет: Коллекция / Lichtmond Collection Год выпуска: 2010-2016
Страна: Германия
Студия: Blu Phase Media GmbH, IMAGO-D Studios
Жанр: Документальный, видовой, музыка, релаксация
Продолжительность: 4 x ~00:50:00Перевод: Не требуется
Русские субтитры: нет
Режиссер на русском: Джорджио Коппехели, Мартин КоппехелиОписание: Потрясающее путешествие в фэнтези, в лучах лунного света через волшебные звуки. Погрузитесь в неординарную музыку и пусть ваши FullHD экраны превратятся на один час в двери сказочных миров, которые до селе Вам не приходилось видеть, но наверняка вы мечтали о них. Это удивительное Blu-ray издание, с уникальным звуковым рядом, как по качеству так и по наполнению невиданной красоты видеорядом футуристических 3D миров. Ни в коем случае не пропустите этот диск, пусть он наполнит Ваш дом, яркими красками и высококачественным божественным звучанием произведений Giorgio и Martin Koppehele.Список серий:
1. Лунный свет (00:48:47)
2. Вселенная света (00:50:56)
3. Дни вечности (00:50:02)
4. Путешествие (00:53:38)Качество: BDrip
Контейнер: MKV
Формат 3D: OverUnder / Вертикальная стереопара
Порядок ракурсов: левый ракурс первый
Видео кодек: H.265
Аудио кодек: DTS
Видео: HEVC, 18000 Кбит/с, 1920x2160 (16:9), 23.976 кадр/с
Аудио: Немецкий / DTS, 48 KHz, 5.1 ch, 1509 Kbps
Субтитры: отсутствуютВнимание: Данное видео не воспроизводится с usb телевизора!
Только через HDMI-шнур на телевизор (с компьютера или медиаплеера). Примечание: В аудио, наряду с немецкими текстами, присутствуют музыкальные композиции на английском.Рип от

MediaInfo

ОбщееУникальный идентификатор                 : 204067847347922907770569002856712039943 (0x998609AC90F09D6AF57E564AAC28EE07)Полное имя                               : D:\Хранилище\Видео\Лунный свет\Lichtmond Collection\Lichtmond.1.BDRip.3d.OU.mkvФормат                                   : MatroskaВерсия формата                           : Version 4Размер файла                             : 6,65 ГбайтПродолжительность                        : 48 м. 47 с.Общий поток                              : 19,5 Мбит/секДата кодирования                         : UTC 2018-11-26 07:03:07Программа кодирования                    : mkvmerge v28.2.0 ('The Awakening') 64-bitБиблиотека кодирования                   : libebml v1.3.6 + libmatroska v1.4.9ВидеоИдентификатор                            : 1Формат                                   : HEVCФормат/Информация                        : High Efficiency Video CodingПрофиль формата                          : Main@L5@MainMultiView_Count                          : 2MultiView_Layout                         : Top-Bottom (left eye first)Идентификатор кодека                     : V_MPEGH/ISO/HEVCПродолжительность                        : 48 м. 47 с.Битрейт                                  : 18,0 Мбит/секШирина                                   : 1920 пикселейВысота                                   : 2160 пикселейСоотношение сторон                       : 16:9Соотношение сторон в оригинале           : 0,889Режим частоты кадров                     : ПостоянныйЧастота кадров                           : 23,976 (24000/1001) кадра/секЦветовое пространство                    : YUVСубдискретизация насыщенности            : 4:2:0Битовая глубина                          : 8 битБит/(Пиксели*Кадры)                      : 0.181Размер потока                            : 6,13 Гбайт (92%)Библиотека кодирования                   : x265 2.8+1-478bfe2b7673:[Windows][GCC 7.3.0][64 bit] 8bit+10bit+12bitНастройки программы                      : cpuid=1111039 / frame-threads=3 / numa-pools=12 / wpp / no-pmode / no-pme / no-psnr / no-ssim / log-level=2 / input-csp=1 / input-res=1920x2160 / interlace=0 / total-frames=70185 / level-idc=0 / high-tier=1 / uhd-bd=0 / ref=4 / no-allow-non-conformance / no-repeat-headers / annexb / no-aud / no-hrd / info / hash=0 / no-temporal-layers / open-gop / min-keyint=23 / keyint=250 / gop-lookahead=0 / bframes=4 / b-adapt=2 / b-pyramid / bframe-bias=0 / rc-lookahead=25 / lookahead-slices=4 / scenecut=40 / radl=0 / no-intra-refresh / ctu=64 / min-cu-size=8 / rect / no-amp / max-tu-size=32 / tu-inter-depth=1 / tu-intra-depth=1 / limit-tu=0 / rdoq-level=2 / dynamic-rd=0.00 / no-ssim-rd / signhide / no-tskip / nr-intra=0 / nr-inter=0 / no-constrained-intra / strong-intra-smoothing / max-merge=3 / limit-refs=3 / limit-modes / me=3 / subme=3 / merange=57 / temporal-mvp / weightp / no-weightb / no-analyze-src-pics / deblock=0:0 / sao / no-sao-non-deblock / rd=4 / no-early-skip / rskip / no-fast-intra / no-tskip-fast / no-cu-lossless / no-b-intra / no-splitrd-skip / rdpenalty=0 / psy-rd=2.00 / psy-rdoq=1.00 / no-rd-refine / no-lossless / cbqpoffs=0 / crqpoffs=0 / rc=abr / bitrate=18000 / qcomp=0.60 / qpstep=4 / stats-write=0 / stats-read=2 / cplxblur=20.0 / qblur=0.5 / ipratio=1.40 / pbratio=1.30 / aq-mode=1 / aq-strength=1.00 / cutree / zone-count=0 / no-strict-cbr / qg-size=32 / no-rc-grain / qpmax=69 / qpmin=0 / no-const-vbv / sar=1 / overscan=0 / videoformat=5 / range=0 / colorprim=2 / transfer=2 / colormatrix=2 / chromaloc=0 / display-window=0 / max-cll=0,0 / min-luma=0 / max-luma=255 / log2-max-poc-lsb=8 / vui-timing-info / vui-hrd-info / slices=1 / no-opt-qp-pps / no-opt-ref-list-length-pps / no-multi-pass-opt-rps / scenecut-bias=0.05 / no-opt-cu-delta-qp / no-aq-motion / no-hdr / no-hdr-opt / no-dhdr10-opt / no-idr-recovery-sei / analysis-reuse-level=5 / scale-factor=0 / refine-intra=0 / refine-inter=0 / refine-mv=0 / no-limit-sao / ctu-info=0 / no-lowpass-dct / refine-mv-type=0 / copy-pic=1 / max-ausize-factor=1.0 / no-dynamic-refine / no-single-seiDefault                                  : ДаForced                                   : НетАудиоИдентификатор                            : 2Формат                                   : DTSФормат/Информация                        : Digital Theater SystemsИдентификатор кодека                     : A_DTSПродолжительность                        : 48 м. 46 с.Вид битрейта                             : ПостоянныйБитрейт                                  : 1509 Кбит/секКаналы                                   : 6 каналовChannel layout                           : C L R Ls Rs LFEЧастота                                  : 48,0 КГцЧастота кадров                           : 93,750 кадра/сек (512 SPF)Битовая глубина                          : 24 битМетод сжатия                             : С потерямиРазмер потока                            : 526 Мбайт (8%)Язык                                     : GermanDefault                                  : ДаForced                                   : НетМеню00:00:00.000                             : :(01)00:00:00:00000:01:37.138                             : :(02)00:01:37:13800:06:25.093                             : :(03)00:06:25:09300:10:50.566                             : :(04)00:10:50:56600:17:00.060                             : :(05)00:17:00:06000:22:19.546                             : :(06)00:22:19:54600:28:20.198                             : :(07)00:28:20:19800:34:33.654                             : :(08)00:34:33:65400:40:56.036                             : :(09)00:40:56:03600:46:47.471                             : :(10)00:46:47:471ОбщееУникальный идентификатор                 : 293393167431594081890666446562867917572 (0xDCB977FA54FB00832FD343317DCDB304)Полное имя                               : D:\Хранилище\Видео\Лунный свет\Lichtmond Collection\Lichtmond.2.BDRip.3d.OU.mkvФормат                                   : MatroskaВерсия формата                           : Version 4Размер файла                             : 6,94 ГбайтПродолжительность                        : 50 м. 56 с.Общий поток                              : 19,5 Мбит/секДата кодирования                         : UTC 2018-11-26 07:34:30Программа кодирования                    : mkvmerge v28.2.0 ('The Awakening') 64-bitБиблиотека кодирования                   : libebml v1.3.6 + libmatroska v1.4.9ВидеоИдентификатор                            : 1Формат                                   : HEVCФормат/Информация                        : High Efficiency Video CodingПрофиль формата                          : Main@L5@MainMultiView_Count                          : 2MultiView_Layout                         : Top-Bottom (left eye first)Идентификатор кодека                     : V_MPEGH/ISO/HEVCПродолжительность                        : 50 м. 56 с.Битрейт                                  : 18,0 Мбит/секШирина                                   : 1920 пикселейВысота                                   : 2160 пикселейСоотношение сторон                       : 16:9Соотношение сторон в оригинале           : 0,889Режим частоты кадров                     : ПостоянныйЧастота кадров                           : 23,976 (24000/1001) кадра/секЦветовое пространство                    : YUVСубдискретизация насыщенности            : 4:2:0Битовая глубина                          : 8 битБит/(Пиксели*Кадры)                      : 0.181Размер потока                            : 6,40 Гбайт (92%)Библиотека кодирования                   : x265 2.8+1-478bfe2b7673:[Windows][GCC 7.3.0][64 bit] 8bit+10bit+12bitНастройки программы                      : cpuid=1111039 / frame-threads=3 / numa-pools=12 / wpp / no-pmode / no-pme / no-psnr / no-ssim / log-level=2 / input-csp=1 / input-res=1920x2160 / interlace=0 / total-frames=73286 / level-idc=0 / high-tier=1 / uhd-bd=0 / ref=4 / no-allow-non-conformance / no-repeat-headers / annexb / no-aud / no-hrd / info / hash=0 / no-temporal-layers / open-gop / min-keyint=23 / keyint=250 / gop-lookahead=0 / bframes=4 / b-adapt=2 / b-pyramid / bframe-bias=0 / rc-lookahead=25 / lookahead-slices=4 / scenecut=40 / radl=0 / no-intra-refresh / ctu=64 / min-cu-size=8 / rect / no-amp / max-tu-size=32 / tu-inter-depth=1 / tu-intra-depth=1 / limit-tu=0 / rdoq-level=2 / dynamic-rd=0.00 / no-ssim-rd / signhide / no-tskip / nr-intra=0 / nr-inter=0 / no-constrained-intra / strong-intra-smoothing / max-merge=3 / limit-refs=3 / limit-modes / me=3 / subme=3 / merange=57 / temporal-mvp / weightp / no-weightb / no-analyze-src-pics / deblock=0:0 / sao / no-sao-non-deblock / rd=4 / no-early-skip / rskip / no-fast-intra / no-tskip-fast / no-cu-lossless / no-b-intra / no-splitrd-skip / rdpenalty=0 / psy-rd=2.00 / psy-rdoq=1.00 / no-rd-refine / no-lossless / cbqpoffs=0 / crqpoffs=0 / rc=abr / bitrate=18000 / qcomp=0.60 / qpstep=4 / stats-write=0 / stats-read=2 / cplxblur=20.0 / qblur=0.5 / ipratio=1.40 / pbratio=1.30 / aq-mode=1 / aq-strength=1.00 / cutree / zone-count=0 / no-strict-cbr / qg-size=32 / no-rc-grain / qpmax=69 / qpmin=0 / no-const-vbv / sar=1 / overscan=0 / videoformat=5 / range=0 / colorprim=2 / transfer=2 / colormatrix=2 / chromaloc=0 / display-window=0 / max-cll=0,0 / min-luma=0 / max-luma=255 / log2-max-poc-lsb=8 / vui-timing-info / vui-hrd-info / slices=1 / no-opt-qp-pps / no-opt-ref-list-length-pps / no-multi-pass-opt-rps / scenecut-bias=0.05 / no-opt-cu-delta-qp / no-aq-motion / no-hdr / no-hdr-opt / no-dhdr10-opt / no-idr-recovery-sei / analysis-reuse-level=5 / scale-factor=0 / refine-intra=0 / refine-inter=0 / refine-mv=0 / no-limit-sao / ctu-info=0 / no-lowpass-dct / refine-mv-type=0 / copy-pic=1 / max-ausize-factor=1.0 / no-dynamic-refine / no-single-seiDefault                                  : ДаForced                                   : НетАудиоИдентификатор                            : 2Формат                                   : DTSФормат/Информация                        : Digital Theater SystemsИдентификатор кодека                     : A_DTSПродолжительность                        : 50 м. 56 с.Вид битрейта                             : ПостоянныйБитрейт                                  : 1509 Кбит/секКаналы                                   : 6 каналовChannel layout                           : C L R Ls Rs LFEЧастота                                  : 48,0 КГцЧастота кадров                           : 93,750 кадра/сек (512 SPF)Битовая глубина                          : 24 битМетод сжатия                             : С потерямиРазмер потока                            : 550 Мбайт (8%)Язык                                     : GermanDefault                                  : ДаForced                                   : НетМеню00:00:00.000                             : :(01)00:00:00:00000:02:20.140                             : :(02)00:02:20:14000:06:28.388                             : :(03)00:06:28:38800:11:34.694                             : :(04)00:11:34:69400:17:54.073                             : :(05)00:17:54:07300:23:56.435                             : :(06)00:23:56:43500:29:13.835                             : :(07)00:29:13:83500:35:16.114                             : :(08)00:35:16:11400:41:29.487                             : :(09)00:41:29:48700:47:44.361                             : :(10)00:47:44:361ОбщееУникальный идентификатор                 : 330812242056040998601909497609938627476 (0xF8E01ECB9FD474E15EA454A431F96B94)Полное имя                               : D:\Хранилище\Видео\Лунный свет\Lichtmond Collection\Lichtmond.3.BDRip.3d.OU.mkvФормат                                   : MatroskaВерсия формата                           : Version 4Размер файла                             : 6,82 ГбайтПродолжительность                        : 50 м. 2 с.Общий поток                              : 19,5 Мбит/секДата кодирования                         : UTC 2018-11-26 07:43:17Программа кодирования                    : mkvmerge v28.2.0 ('The Awakening') 64-bitБиблиотека кодирования                   : libebml v1.3.6 + libmatroska v1.4.9ВидеоИдентификатор                            : 1Формат                                   : HEVCФормат/Информация                        : High Efficiency Video CodingПрофиль формата                          : Main@L5@MainMultiView_Count                          : 2MultiView_Layout                         : Top-Bottom (left eye first)Идентификатор кодека                     : V_MPEGH/ISO/HEVCПродолжительность                        : 50 м. 2 с.Битрейт                                  : 18,0 Мбит/секШирина                                   : 1920 пикселейВысота                                   : 2160 пикселейСоотношение сторон                       : 16:9Соотношение сторон в оригинале           : 0,889Режим частоты кадров                     : ПостоянныйЧастота кадров                           : 23,976 (24000/1001) кадра/секЦветовое пространство                    : YUVСубдискретизация насыщенности            : 4:2:0Битовая глубина                          : 8 битБит/(Пиксели*Кадры)                      : 0.181Размер потока                            : 6,29 Гбайт (92%)Библиотека кодирования                   : x265 2.8+1-478bfe2b7673:[Windows][GCC 7.3.0][64 bit] 8bit+10bit+12bitНастройки программы                      : cpuid=1111039 / frame-threads=3 / numa-pools=12 / wpp / no-pmode / no-pme / no-psnr / no-ssim / log-level=2 / input-csp=1 / input-res=1920x2160 / interlace=0 / total-frames=71995 / level-idc=0 / high-tier=1 / uhd-bd=0 / ref=4 / no-allow-non-conformance / no-repeat-headers / annexb / no-aud / no-hrd / info / hash=0 / no-temporal-layers / open-gop / min-keyint=23 / keyint=250 / gop-lookahead=0 / bframes=4 / b-adapt=2 / b-pyramid / bframe-bias=0 / rc-lookahead=25 / lookahead-slices=4 / scenecut=40 / radl=0 / no-intra-refresh / ctu=64 / min-cu-size=8 / rect / no-amp / max-tu-size=32 / tu-inter-depth=1 / tu-intra-depth=1 / limit-tu=0 / rdoq-level=2 / dynamic-rd=0.00 / no-ssim-rd / signhide / no-tskip / nr-intra=0 / nr-inter=0 / no-constrained-intra / strong-intra-smoothing / max-merge=3 / limit-refs=3 / limit-modes / me=3 / subme=3 / merange=57 / temporal-mvp / weightp / no-weightb / no-analyze-src-pics / deblock=0:0 / sao / no-sao-non-deblock / rd=4 / no-early-skip / rskip / no-fast-intra / no-tskip-fast / no-cu-lossless / no-b-intra / no-splitrd-skip / rdpenalty=0 / psy-rd=2.00 / psy-rdoq=1.00 / no-rd-refine / no-lossless / cbqpoffs=0 / crqpoffs=0 / rc=abr / bitrate=18000 / qcomp=0.60 / qpstep=4 / stats-write=0 / stats-read=2 / cplxblur=20.0 / qblur=0.5 / ipratio=1.40 / pbratio=1.30 / aq-mode=1 / aq-strength=1.00 / cutree / zone-count=0 / no-strict-cbr / qg-size=32 / no-rc-grain / qpmax=69 / qpmin=0 / no-const-vbv / sar=1 / overscan=0 / videoformat=5 / range=0 / colorprim=2 / transfer=2 / colormatrix=2 / chromaloc=0 / display-window=0 / max-cll=0,0 / min-luma=0 / max-luma=255 / log2-max-poc-lsb=8 / vui-timing-info / vui-hrd-info / slices=1 / no-opt-qp-pps / no-opt-ref-list-length-pps / no-multi-pass-opt-rps / scenecut-bias=0.05 / no-opt-cu-delta-qp / no-aq-motion / no-hdr / no-hdr-opt / no-dhdr10-opt / no-idr-recovery-sei / analysis-reuse-level=5 / scale-factor=0 / refine-intra=0 / refine-inter=0 / refine-mv=0 / no-limit-sao / ctu-info=0 / no-lowpass-dct / refine-mv-type=0 / copy-pic=1 / max-ausize-factor=1.0 / no-dynamic-refine / no-single-seiDefault                                  : ДаForced                                   : НетАудиоИдентификатор                            : 2Формат                                   : DTSФормат/Информация                        : Digital Theater SystemsИдентификатор кодека                     : A_DTSПродолжительность                        : 50 м. 2 с.Вид битрейта                             : ПостоянныйБитрейт                                  : 1509 Кбит/секКаналы                                   : 6 каналовChannel layout                           : C L R Ls Rs LFEЧастота                                  : 48,0 КГцЧастота кадров                           : 93,750 кадра/сек (512 SPF)Битовая глубина                          : 24 битМетод сжатия                             : С потерямиРазмер потока                            : 540 Мбайт (8%)Язык                                     : GermanDefault                                  : ДаForced                                   : НетМеню00:00:00.000                             : :(01)00:00:00:00000:01:38.932                             : :(02)00:01:38:93200:03:49.646                             : :(03)00:03:49:64600:10:25.041                             : :(04)00:10:25:04100:15:42.775                             : :(05)00:15:42:77500:21:57.649                             : :(06)00:21:57:64900:28:51.229                             : :(07)00:28:51:22900:34:59.305                             : :(08)00:34:59:30500:40:17.039                             : :(09)00:40:17:03900:46:34.166                             : :(10)00:46:34:16600:50:02.249                             : :(11)00:50:02:249ОбщееУникальный идентификатор                 : 267717467672597895015813182293303758529 (0xC968823E4454E93DC0D7A557173E0EC1)Полное имя                               : D:\Хранилище\Видео\Лунный свет\Lichtmond Collection\Lichtmond.4.BDRip.3d.OU.mkvФормат                                   : MatroskaВерсия формата                           : Version 4Размер файла                             : 7,31 ГбайтПродолжительность                        : 53 м. 38 с.Общий поток                              : 19,5 Мбит/секДата кодирования                         : UTC 2018-11-26 07:50:51Программа кодирования                    : mkvmerge v28.2.0 ('The Awakening') 64-bitБиблиотека кодирования                   : libebml v1.3.6 + libmatroska v1.4.9ВидеоИдентификатор                            : 1Формат                                   : HEVCФормат/Информация                        : High Efficiency Video CodingПрофиль формата                          : Main@L5@MainMultiView_Count                          : 2MultiView_Layout                         : Top-Bottom (left eye first)Идентификатор кодека                     : V_MPEGH/ISO/HEVCПродолжительность                        : 53 м. 38 с.Битрейт                                  : 18,0 Мбит/секШирина                                   : 1920 пикселейВысота                                   : 2160 пикселейСоотношение сторон                       : 16:9Соотношение сторон в оригинале           : 0,889Режим частоты кадров                     : ПостоянныйЧастота кадров                           : 23,976 (24000/1001) кадра/секЦветовое пространство                    : YUVСубдискретизация насыщенности            : 4:2:0Битовая глубина                          : 8 битБит/(Пиксели*Кадры)                      : 0.181Размер потока                            : 6,74 Гбайт (92%)Библиотека кодирования                   : x265 2.8+1-478bfe2b7673:[Windows][GCC 7.3.0][64 bit] 8bit+10bit+12bitНастройки программы                      : cpuid=1111039 / frame-threads=3 / numa-pools=12 / wpp / no-pmode / no-pme / no-psnr / no-ssim / log-level=2 / input-csp=1 / input-res=1920x2160 / interlace=0 / total-frames=77170 / level-idc=0 / high-tier=1 / uhd-bd=0 / ref=4 / no-allow-non-conformance / no-repeat-headers / annexb / no-aud / no-hrd / info / hash=0 / no-temporal-layers / open-gop / min-keyint=23 / keyint=250 / gop-lookahead=0 / bframes=4 / b-adapt=2 / b-pyramid / bframe-bias=0 / rc-lookahead=25 / lookahead-slices=4 / scenecut=40 / radl=0 / no-intra-refresh / ctu=64 / min-cu-size=8 / rect / no-amp / max-tu-size=32 / tu-inter-depth=1 / tu-intra-depth=1 / limit-tu=0 / rdoq-level=2 / dynamic-rd=0.00 / no-ssim-rd / signhide / no-tskip / nr-intra=0 / nr-inter=0 / no-constrained-intra / strong-intra-smoothing / max-merge=3 / limit-refs=3 / limit-modes / me=3 / subme=3 / merange=57 / temporal-mvp / weightp / no-weightb / no-analyze-src-pics / deblock=0:0 / sao / no-sao-non-deblock / rd=4 / no-early-skip / rskip / no-fast-intra / no-tskip-fast / no-cu-lossless / no-b-intra / no-splitrd-skip / rdpenalty=0 / psy-rd=2.00 / psy-rdoq=1.00 / no-rd-refine / no-lossless / cbqpoffs=0 / crqpoffs=0 / rc=abr / bitrate=18000 / qcomp=0.60 / qpstep=4 / stats-write=0 / stats-read=2 / cplxblur=20.0 / qblur=0.5 / ipratio=1.40 / pbratio=1.30 / aq-mode=1 / aq-strength=1.00 / cutree / zone-count=0 / no-strict-cbr / qg-size=32 / no-rc-grain / qpmax=69 / qpmin=0 / no-const-vbv / sar=1 / overscan=0 / videoformat=5 / range=0 / colorprim=2 / transfer=2 / colormatrix=2 / chromaloc=0 / display-window=0 / max-cll=0,0 / min-luma=0 / max-luma=255 / log2-max-poc-lsb=8 / vui-timing-info / vui-hrd-info / slices=1 / no-opt-qp-pps / no-opt-ref-list-length-pps / no-multi-pass-opt-rps / scenecut-bias=0.05 / no-opt-cu-delta-qp / no-aq-motion / no-hdr / no-hdr-opt / no-dhdr10-opt / no-idr-recovery-sei / analysis-reuse-level=5 / scale-factor=0 / refine-intra=0 / refine-inter=0 / refine-mv=0 / no-limit-sao / ctu-info=0 / no-lowpass-dct / refine-mv-type=0 / copy-pic=1 / max-ausize-factor=1.0 / no-dynamic-refine / no-single-seiDefault                                  : ДаForced                                   : НетАудиоИдентификатор                            : 2Формат                                   : DTSФормат/Информация                        : Digital Theater SystemsИдентификатор кодека                     : A_DTSПродолжительность                        : 53 м. 38 с.Вид битрейта                             : ПостоянныйБитрейт                                  : 1509 Кбит/секКаналы                                   : 6 каналовChannel layout                           : C L R Ls Rs LFEЧастота                                  : 48,0 КГцЧастота кадров                           : 93,750 кадра/сек (512 SPF)Битовая глубина                          : 24 битМетод сжатия                             : С потерямиРазмер потока                            : 579 Мбайт (8%)Язык                                     : GermanDefault                                  : ДаForced                                   : НетМеню00:00:00.000                             : :(01)00:00:00:00000:01:43.103                             : :(02)00:01:43:10300:04:13.670                             : :(03)00:04:13:67000:11:01.077                             : :(04)00:11:01:07700:17:52.071                             : :(05)00:17:52:07100:24:28.675                             : :(06)00:24:28:67500:30:31.830                             : :(07)00:30:31:83000:37:22.657                             : :(08)00:37:22:65700:44:06.268                             : :(09)00:44:06:26800:50:45.250                             : :(10)00:50:45:25000:53:38.215                             : :(11)00:53:38:215

Скриншоты


To download the content you need:
1. Download and install torrent client [for Windows] or for mobile system
2. Click on [Download]
Attention.
If the test YOU are NOT a ROBOT - does not work, then You are using an outdated browser.
Install the current browser and click on [Download]
Security: torrent client is allowed by Kaspersky.

[asmlocator.ru].t604811.torrent 
Torrent: Registered [ 2019-02-01 21:55 ] · E89FD0F09F8F9B5053DD7414954DF9E0981E558F

Download .torrent

Download

139 KB

Status: checked
Completed: 0 times
Size: 27.72 GB
terms.php
[Profile] [PM]
Display posts:    
Reply to topic

Current time is: 26-Apr 08:32

All times are UTC ± 0



You cannot post new topics in this forum
You cannot reply to topics in this forum
You cannot edit your posts in this forum
You cannot delete your posts in this forum
You cannot vote in polls in this forum
You cannot attach files in this forum
You can download files in this forum