Крепкий кофеек / Coffy (Джек Хилл / Jack Hill) [1973, США, блэксплотейшн, DVD5] MVO (DVD Магия) + Original Eng

Ответить на тему
Статистика раздачи
Размер:  2.83 GB   |    Зарегистрирован:  1 год   |    Скачан:  0 раз

Полного источника не было: Никогда

 
   
 
 
Автор Сообщение

star21 ®

Пол: Женский

Стаж: 4 года 3 месяца

Сообщений: 551946

Откуда: Екатеринбург

Создавать темы 01-Фев-2019 14:41

[Цитировать]

Крепкий кофеек / Coffy Страна: США
Студия: American International
Жанр: блэксплотейшн
Год выпуска: 1973
Продолжительность: 01:30:03Перевод: Профессиональный (многоголосый закадровый) DVD Магия
Субтитры: нет
Оригинальная аудиодорожка: английскийРежиссер: Джек Хилл / Jack HillВ ролях: Пэм Гриер, Букер Брэдшоу, Роберт Дукуй, Уильям Эллиотт, Аллан Арбас, Бэрри Кехилл, Ли де Бру, Рубен Морено, Лиза Фаррингер, Кэрол Локателл, Рэй Янг, Сид Хэйг...Описание: Женщина, жившая обычной жизнью и ничем не выделявшаяся из толпы, оказалась одержима местью. Она собирается убить всех, кто виноват в том, что ее 11-летняя сестра потеряла рассудок из-за употребления наркотиков. Частенько она соблазнительно заманивает своих жертв, а потом разносит их к чертовой матери из дробовика, который просто не может дать промашки.Доп. информация: Лицензионный DVD из собственной коллекции.
Данная раздача отличается большим наполнением кадра!
Бонусы: Типа есть... "Смотрите на DVD" - три страницы текста.Меню: Русское, неанимированное, озвученноеСэмпл: http://sendfile.su/1471522Тип релиза: DVD5
Контейнер: DVD-VideoВидео: MPEG 2, PAL, 720х576, VBR, 4:3, 3975 Кбит/сек, 25,000 кадров/сек
Аудио: Русский, АС-3, 2 channels, 48.0 kHz, 192 kb/s
Аудио 2: Английский, АС-3, 2 channels, 48.0 kHz, 192 kb/s

MediaInfo

ОбщееПолное имя                               : G:\torrents\Coffy\VTS_01_1.VOBФормат                                   : MPEG-PSРазмер файла                             : 1024 МбайтПродолжительность                        : 32 м. 10 с.Режим общего битрейта                    : ПеременныйОбщий поток                              : 4448 Кбит/секВидеоИдентификатор                            : 224 (0xE0)Формат                                   : MPEG VideoВерсия формата                           : Version 2Профиль формата                          : Main@MainНастройки формата                        : CustomMatrix / BVOPПараметр BVOP формата                    : ДаПараметр матрицы формата                 : ВыборочнаяПараметр GOP формата                     : M=3, N=15Структура изображения                    : FrameПродолжительность                        : 32 м. 10 с.Вид битрейта                             : ПеременныйБитрейт                                  : 3975 Кбит/секМаксимальный битрейт                     : 9800 Кбит/секШирина                                   : 720 пикселейВысота                                   : 576 пикселейСоотношение сторон                       : 4:3Частота кадров                           : 25,000 кадров/секСтандарт вещания                         : PALЦветовое пространство                    : YUVСубдискретизация насыщенности            : 4:2:0Битовая глубина                          : 8 битТип развёртки                            : ЧересстрочнаяПорядок развёртки                        : Верхнее поле первоеМетод сжатия                             : С потерямиБит/(Пиксели*Кадры)                      : 0.383Временной код первого кадра              : 00:00:04:16Оригинал временного кода                 : Group of pictures headerGOP, открыто/закрыто                     : ЗакрытоРазмер потока                            : 915 Мбайт (89%)Аудио #1Идентификатор                            : 189 (0xBD)-128 (0x80)Формат                                   : AC-3Формат/Информация                        : Audio Coding 3Режим смешивания                         : DVD-VideoПродолжительность                        : 32 м. 3 с.Вид битрейта                             : ПостоянныйБитрейт                                  : 192 Кбит/секКаналы                                   : 2 каналаРасположение каналов                     : Front: L RЧастота                                  : 48,0 КГцЧастота кадров                           : 31,250 кадров/сек (1536 SPF)Битовая глубина                          : 16 битМетод сжатия                             : С потерямиЗадержка видео                           : 7 с. 126 мс.Размер потока                            : 44,0 Мбайт (4%)ServiceKind/String                       : Complete MainАудио #2Идентификатор                            : 189 (0xBD)-129 (0x81)Формат                                   : AC-3Формат/Информация                        : Audio Coding 3Режим смешивания                         : DVD-VideoПродолжительность                        : 32 м. 9 с.Вид битрейта                             : ПостоянныйБитрейт                                  : 192 Кбит/секКаналы                                   : 2 каналаРасположение каналов                     : Front: L RЧастота                                  : 48,0 КГцЧастота кадров                           : 31,250 кадров/сек (1536 SPF)Битовая глубина                          : 16 битМетод сжатия                             : С потерямиЗадержка видео                           : 805 мс.Размер потока                            : 44,2 Мбайт (4%)ServiceKind/String                       : Complete MainМеню

DVDInfo

Title: CoffySize: 2.83 Gb ( 2 965 148,00 KBytes ) - DVD-5Enabled regions: 1, 2, 3, 4, 5, 6, 7, 8VTS_01 :  Play Length: 01:30:02+{01:30:02}+{01:30:02}  Video: PAL 4:3 (720x576) VBR  Audio:      Russian (Dolby AC3, 2 ch)      English (Dolby AC3, 2 ch)      English (Dolby AC3, 6 ch)      English (Dolby AC3, 6 ch)      English (Dolby AC3, 6 ch)      English (Dolby AC3, 6 ch)VTS_02 :  Play Length: 00:00:12  Video: PAL 4:3 (720x576) VBR  Audio:      Russian (Dolby AC3, 6 ch)VTS_03 :  Play Length: 00:00:08  Video: PAL 4:3 (720x576) VBR  Audio:      Russian (Dolby AC3, 6 ch)* Menus Information *VIDEO_TS MenuVideo:      PAL 4:3 (720x576) VBREnglish Language Unit :      Title MenuVTS_01 MenuVideo:      PAL 4:3 (720x576) VBRAudio:      Not specified (Dolby AC3, 2 ch)English Language Unit :      Root Menu      Audio Menu      Chapter (PTT) MenuVTS_02 MenuVideo:      PAL 4:3 (720x576) VBREnglish Language Unit :      Root MenuVTS_03 MenuVideo:      PAL 4:3 (720x576) VBREnglish Language Unit :      Root Menu

Скриншоты меню

Скриншот с названием фильма

Скриншоты доп. материалов

Чтобы скачать этот контент, Вам необходимо:
1. Скачать и установить торрент-клиент [клик для Windows], (для мобильного найдите на Play Маркет).
2. Кликнуть по [Скачать]


Внимание.
Если проверка ВЫ НЕ РОБОТ - не работает, значит Вы используете устаревший браузер.
Установите актуальный браузер и повторно кликните по [Скачать]
Безопасность: торрент-клиент разрешён АВ Касперского.

[asmlocator.ru].t604545.torrent 
Торрент: Зарегистрирован [ 2019-02-01 14:40 ] · 041825A9053527BDE4DE1BA252A4DBB5BEACE9D3

Скачать .torrent

Скачать

15 KB

Статус: проверено
Скачан: 0 раз
Размер: 2.83 GB
terms.php
[Профиль] [ЛС]
Показать сообщения:    
Ответить на тему

Текущее время: 22-Фев 18:32

Часовой пояс: UTC ± 0



Вы не можете начинать темы
Вы не можете отвечать на сообщения
Вы не можете редактировать свои сообщения
Вы не можете удалять свои сообщения
Вы не можете голосовать в опросах
Вы не можете прикреплять файлы к сообщениям
Вы можете скачивать файлы
Верим фактам, а не вранью Путина! Факт, что Правительство ведёт Россию к истреблению.
Так как численность населения падает, даже не смотря на приток эмигрантов!
Русская нация вымирает и вырождается, смешиваясь с эмигрантами!
Факт, что военных и граждан предприятий заставляют голосовать за партию Единая Россия и Путина
ПОД СТРАХОМ УВОЛЬНЕНИЯ!
Нам не нужно Правительство, блокирующее личную жизнь, интернет, нарушающее сохранность данных.
Все эти действия финансируются за счёт народа!