Перехватчики МиГ-25 и МиГ-31. Лучшие в своём деле (2 серии из 2) (Андрей Кулясов) [2012, Документальный, авиация, вооружение, история, WEB-DLRip]

Reply to topic
DL-List and Torrent activity
Size:  1.13 GB   |    Registered:  5 months 17 days   |    Completed:  0 times

Seeder not seen: 4 months 24 days

 
   
 
 
Author Message

star21 ®

Gender: Female

Longevity: 3 years 8 months

Posts: 552042

Location: Екатеринбург

Post 01-Feb-2019 09:45

[Quote]

Перехватчики МиГ-25 и МиГ-31. Лучшие в своём деле (2 серии из 2) Дата/Год выпуска: 2012
Страна: Россия, Киностудия «Крылья России»
Жанр: Документальный, авиация, вооружение, история
Продолжительность: 2 x ~ 00:38:34
Перевод: Не требуется
Режиссер: Андрей КулясовОписание: МиГ-25 стал прорывным проектом развития этого вида самолета в СССР. За ним охотились разведслужбы многих стран мира. А угнанный перебежчиком Беленко экземпляр самолета был разобран в Японии до винтиков. На этом самолете установлено множество мировых рекордов, многие из которых не побиты по сей день. А самолет МиГ-31, являющийся логическим развитием МиГ-25, не имеет аналогов в мире.Доп. информация: Авторство релиза - alf62
качество: WEB-DLRip
формат: AVI
Видео: 720x400 (1.80:1), 25 fps, XviD build 73 ~1899 kbps avg, 0.26 bit/pixel
Аудио: 48 kHz, AC3 Dolby Digital, 2/0 (L,R) ch, ~192.00 kbps avgПерехватчики МиГ-25 и МиГ-31. Лучшие в своём деле на rutracker.cr

Список выпусков/серий

Фильм 1
Предпосылки к созданию самолета МиГ-25. Проектирование и испытания. Трагические эпизоды в истории МиГ-25. Перехватчик МиГ-25 в войсках. Тактико-технические характеристики и вооружение. Разведывательные модификации. МиГ-25 - в Египетско-Израильском конфликте.Фильм 2
Угон МиГ-25 в Японию. Совершенствование МиГ-25. Предпосылки к созданию перехватчика МиГ-31. Тактико-технические характеристики и вооружение МиГ-31. Гибель летчика-испытателя Александра Федорова. Модернизация МиГ-31. МиГ-31 в ВВС России.

MediaInfo

ОбщееПолное имя                               : D:\Запись\Перехватчики МиГ-25 и МиГ-31\Перехватчики.МиГ-25.31.(2.серии).2012.XviD.WEB-DLRip.alf62\Перехватчики.МиГ-25.31.(1.серия).2012.XviD.WEB-DLRip.alf62.aviФормат                                   : AVIФормат/Информация                        : Audio Video InterleaveРазмер файла                             : 579 МбайтПродолжительность                        : 38 м.Общий поток                              : 2102 Кбит/секПрограмма кодирования                    : VirtualDubMod 1.5.10.3 | www.virtualdub-fr.org || (build 2550/release)Библиотека кодирования                   : VirtualDubMod build 2550/releaseВидеоИдентификатор                            : 0Формат                                   : MPEG-4 VisualПрофиль формата                          : Advanced Simple@L5Параметр BVOP формата                    : 2Параметр QPel формата                    : НетПараметр GMC формата                     : Без точки переходаПараметр матрицы формата                 : Default (MPEG)Идентификатор кодека                     : XVIDИдентификатор кодека/Подсказка           : XviDПродолжительность                        : 38 м.Битрейт                                  : 1900 Кбит/секШирина                                   : 720 пикселейВысота                                   : 400 пикселейСоотношение сторон                       : 16:9Частота кадров                           : 25,000 кадров/секЦветовое пространство                    : YUVСубдискретизация насыщенности            : 4:2:0Битовая глубина                          : 8 битТип развёртки                            : ПрогрессивнаяМетод сжатия                             : С потерямиБит/(Пиксели*Кадры)                      : 0.264Размер потока                            : 524 Мбайт (90%)Библиотека кодирования                   : XviD 73АудиоИдентификатор                            : 1Формат                                   : AC-3Формат/Информация                        : Audio Coding 3Расширение режима                        : CM (complete main)Параметр Endianness формата              : BigИдентификатор кодека                     : 2000Продолжительность                        : 38 м.Вид битрейта                             : ПостоянныйБитрейт                                  : 192 Кбит/секКаналы                                   : 2 каналаРасположение каналов                     : Front: L RЧастота                                  : 48,0 КГцЧастота кадров                           : 31,250 кадров/сек (1536 spf)Метод сжатия                             : С потерямиРазмер потока                            : 52,9 Мбайт (9%)Выравнивание                             : Разделение по промежуткамПродолжительность промежутка             : 40  мс. (1,00 видеокадр)Время предзагрузки промежутка            : 500  мс.

To download the content you need:
1. Download and install torrent client [for Windows] or for mobile system
2. Click on [Download]
Attention.
If the test YOU are NOT a ROBOT - does not work, then You are using an outdated browser.
Install the current browser and click on [Download]
Security: torrent client is allowed by Kaspersky.

[asmlocator.ru].t604292.torrent 
Torrent: Registered [ 2019-02-01 09:45 ] · 30A961984B2058F75F069109D6F85EF5D9EDC7DA

Download .torrent

Download

12 KB

Status: checked
Completed: 0 times
Size: 1.13 GB
terms.php
[Profile] [PM]
Display posts:    
Reply to topic

Current time is: 18-Jul 20:31

All times are UTC ± 0



You cannot post new topics in this forum
You cannot reply to topics in this forum
You cannot edit your posts in this forum
You cannot delete your posts in this forum
You cannot vote in polls in this forum
You cannot attach files in this forum
You can download files in this forum