Праздничный концерт к Дню спасателя 2018.12.29 [2018, Pop, HDTV, 1080i]

Reply to topic
DL-List and Torrent activity
Size:  7.34 GB   |    Registered:  5 months 24 days   |    Completed:  0 times

Seeder not seen: 4 months 22 days

 
   
 
 
Author Message

star21 ®

Gender: Female

Longevity: 3 years 8 months

Posts: 552050

Location: Екатеринбург

Post 23-Jan-2019 14:40

[Quote]

Праздничный концерт к Дню спасателя 2018.12.29 Жанр: Pop
Продолжительность: 01:34:50
Год выпуска: 2018Описание: Праздничный концерт в честь одной из самых мужественных профессий - спасатель. Самые любимые и популярные артисты исполнят свои песни, поздравят и пожелают успехов в этом не легком деле. Спасатели - это настоящие герои и очень важно чтобы в стране была такая надежная служба.Треклист:
01. Лев Лещенко - Надежда
02. Поздравления с праздником от Владимира Путина
03. TODES
04. Стас Пьеха - Шагни в огонь
05. Ольга Кормухина - Группа крови
06. Эльмира Калимуллина, Глеб Матвейчук - Призрак Оперы
07. Василий Герелло - Любовь настала
08. Анастасия Спиридонова - Цунами
09. Александр Розенбаум - Размышления на прогулке
10. Александр Розенбаум - Вечерняя застольная
11. Варвара - Чёрный ворон друг ты мой залётный
12. Ансамбль народного танца имени Игоря Моисеева - Русский танец "Лето"
13. Александр Маршал и Олег Шаумаров - Камень
14. Елена Максимова - Я с Тобой
15. Родион Газманов и группа «После 11» - Зорька алая
16. Зара - Мир Вашему Дому
17. Интарс Бусулис - Я тебя рисую
18. Денис Майданов и Игорь Николаев - Небо над Россией
19. Тамара Гвердцители - Ориентир любви
20. Анастасия Макеева и Вячеслав Добрынин - Ты у меня единственная
21. Вячеслав Добрынин - Всё, что в жизни есть у меня
22. Валерия - Микроинфаркты
23. Непоседы – Мы желаем счастья вам
24. Сергей Волчков, Валентина Бирюкова и Сводный хор курсантов МЧС РФ — Песня о тревожной молодостиКачество: HDTV
Разрешение видео/развертка: 1080i
Контейнер: TS
Видео кодек: H.264
Аудио кодек: AC3
Видео: H264; 1920x1080 (16:9); 25.000 fps; ~ 10.1 Mb/s
Аудио 1: AC3, 6 channels, 48000Hz, 384 Кбит/сек

Отчёт MediaInfo / BDInfo

GeneralID                             : 1 (0x1)Complete name                  : J:\Праздничный концерт к Дню спасателя 2018.12.29.tsFormat                         : MPEG-TSFile size                      : 7.34 GiBDuration                       : 1 h 34 minOverall bit rate mode          : VariableOverall bit rate               : 11.1 Mb/sVideoID                             : 205 (0xCD)Menu ID                        : 20105 (0x4E89)Format                         : AVCFormat/Info                    : Advanced Video CodecFormat profile                 : High@L4Format settings                : CABAC / 4 Ref FramesFormat settings, CABAC         : YesFormat settings, ReFrames      : 4 framesCodec ID                       : 27Duration                       : 1 h 34 minBit rate                       : 10.1 Mb/sWidth                          : 1 920 pixelsHeight                         : 1 080 pixelsDisplay aspect ratio           : 16:9Frame rate                     : 25.000 FPSStandard                       : ComponentColor space                    : YUVChroma subsampling             : 4:2:0Bit depth                      : 8 bitsScan type                      : InterlacedScan type, store method        : Separated fieldsScan order                     : Top Field FirstBits/(Pixel*Frame)             : 0.196Stream size                    : 6.72 GiB (92%)Color range                    : LimitedColor primaries                : BT.709Transfer characteristics       : BT.709Matrix coefficients            : BT.709AudioID                             : 305 (0x131)Menu ID                        : 20105 (0x4E89)Format                         : AC-3Format/Info                    : Audio Coding 3Commercial name                : Dolby DigitalCodec ID                       : 6Duration                       : 1 h 34 minBit rate mode                  : ConstantBit rate                       : 384 kb/sChannel(s)                     : 6 channelsChannel layout                 : L R C LFE Ls RsSampling rate                  : 48.0 kHzFrame rate                     : 31.250 FPS (1536 SPF)Bit depth                      : 16 bitsCompression mode               : LossyStream size                    : 260 MiB (3%)Language                       : RussianService kind                   : Complete Main

Скриншоты


To download the content you need:
1. Download and install torrent client [for Windows] or for mobile system
2. Click on [Download]
Attention.
If the test YOU are NOT a ROBOT - does not work, then You are using an outdated browser.
Install the current browser and click on [Download]
Security: torrent client is allowed by Kaspersky.

[asmlocator.ru].t600425.torrent 
Torrent: Registered [ 2019-01-23 14:40 ] · 31B0460D06BF3758226E778DD05B5DB3BBF9DBC6

Download .torrent

Download

19 KB

Status: checked
Completed: 0 times
Size: 7.34 GB
terms.php
[Profile] [PM]
Display posts:    
Reply to topic

Current time is: 17-Jul 05:40

All times are UTC ± 0



You cannot post new topics in this forum
You cannot reply to topics in this forum
You cannot edit your posts in this forum
You cannot delete your posts in this forum
You cannot vote in polls in this forum
You cannot attach files in this forum
You can download files in this forum