[DTSCD][UP] Amrit Kirtan - Sacred Circle - 2006-2007 (Mantras, New Age, Meditative)

Ответить на тему
Статистика раздачи
Размер:  630 MB   |    Зарегистрирован:  9 месяцев   |    Скачан:  0 раз

Полного источника не было: Никогда

 
   
 
 
Автор Сообщение

star21 ®

Пол: Женский

Стаж: 3 года 11 месяцев

Сообщений: 551988

Откуда: Екатеринбург

Создавать темы 21-Янв-2019 15:20

[Цитировать]

Amrit Kirtan - Sacred Circle DTS UPMix Формат записи/Источник записи: [DTSCD][UP]
Наличие водяных знаков: Нет
Год издания/переиздания диска: 2006-2007
Жанр: Mantras, New Age, Meditative
Издатель (лейбл): Spirit Voyage Records
Продолжительность: 32:40
Наличие сканов в содержимом раздачи: Только обложка альбомаТреклист:
1 Aad Guray Nameh (Mangalacharan Mantra)
2 Gobindah, Gobindah, Gobindah, Haray, Haray (фрагмент)
3 Waah Yantee
4 Guru Ram Das Miracle Mantra
5 Mool Mantra
6 Ong Namo Guru Dev Namo (Adi Mantra)
7 The Longtime Sun Shine SongКонтейнер: WAV(*.wav)
Тип рипа: tracksРазрядность: 16/44,1
Формат: DTS
Количество каналов: 5.1
Битрейт аудио: 1411 kbps

DR-лог

foobar2000 1.1.9 / Dynamic Range Meter 1.1.1log date: 2019-01-07 16:42:42--------------------------------------------------------------------------------Analyzed: ? / ?--------------------------------------------------------------------------------DR         Peak         RMS     Duration Track--------------------------------------------------------------------------------DR9       -1.09 dB   -14.72 dB      7:56 ?-01_Amrit Kirtan - Aas Guray Nameh (Mangalacharan Mantra) DTSDR11      -0.39 dB   -14.70 dB     11:06 ?-02_Amrit Kirtan - Gobindah, Gobindah, Gobindah, Haray, Haray DTSDR10      -1.44 dB   -14.71 dB     11:04 ?-03_Amrit Kirtan - Waah Yantee DTSDR9       -1.72 dB   -14.68 dB     11:06 ?-04_Amrit Kirtan - Guru Ram Das Miracle Mantra DTSDR10      -1.13 dB   -14.70 dB      7:09 ?-05_Amrit Kirtan - Mool Mantra DTSDR10      -1.78 dB   -14.70 dB      7:15 ?-06_Amrit Kirtan - Ong Namo Guru Dev Namo (Adi Mantra) DTSDR9       -1.77 dB   -14.73 dB      6:46 ?-07_Amrit Kirtan - The Longtime Sun Shine Song DTS--------------------------------------------------------------------------------Number of tracks:  7Official DR value: DR10Samplerate:        44100 HzChannels:          6Bits per sample:   16Bitrate:           1411 kbpsCodec:             DTS================================================================================
Источник (релизер): WEB-релиз
Доп. информация: DJ S.A.W. DTS Upmix
Метод получения апмикса:
ручное выделение фазо-частотных фрагментов фонограммы с помощью функции CCE Adobe Audition
мультиканальный мастеринг – Аdobe Audition (встроенными эффектами и плагинами Waves, iZotope,
Starplugs и т.п.)

Об исполнителе (группе)

Однажды посетив Индию, Amrit Kirtan навсегда влюбилась в чудесные восточные ритмы индийской музыки, особенно духовной - мантр. Но не смотря на это, вернувшись домой, она продолжала издавать свою ежедневную газету Sadhana, практиковать йогу и заниматься музыкой.
И только после нескольких лет в сотрудничестве с известным производителем духовной музыки-молитв Томас Баркьи (Thomas Barquee) они выпустили этот удивительный альбом « Sacred Circle».Thomas Barquee - талантливый музыкант и композитор, пишущий музыку для большого числа исполнителей восточной духовной музыки, в том числе для Snatam Kaur и Deva Premal.

Об альбоме (сборнике)

Очень сладостный и жизнерадостный альбом духовной музыки, наполненный восточными ритмами.

Чтобы скачать этот контент, Вам необходимо:
1. Скачать и установить торрент-клиент [клик для Windows], (для мобильного найдите на Play Маркет).
2. Кликнуть по [Скачать]


Внимание.
Если проверка ВЫ НЕ РОБОТ - не работает, значит Вы используете устаревший браузер.
Установите актуальный браузер и повторно кликните по [Скачать]
Безопасность: торрент-клиент разрешён АВ Касперского.

[asmlocator.ru].t598588.torrent 
Торрент: Зарегистрирован [ 2019-01-21 15:20 ] · 0CFBC6B925FCE7AF03C557FC716FEA6BAFF28DA6

Скачать .torrent

Скачать

14 KB

Статус: проверено
Скачан: 0 раз
Размер: 630 MB
terms.php
[Профиль] [ЛС]
Показать сообщения:    
Ответить на тему

Текущее время: 21-Окт 16:46

Часовой пояс: UTC ± 0



Вы не можете начинать темы
Вы не можете отвечать на сообщения
Вы не можете редактировать свои сообщения
Вы не можете удалять свои сообщения
Вы не можете голосовать в опросах
Вы не можете прикреплять файлы к сообщениям
Вы можете скачивать файлы
Верим фактам, а не вранью Путина! Факт, что Правительство ведёт Россию к истреблению.
Так как численность населения падает, даже не смотря на приток эмигрантов!
Русская нация вымирает и вырождается, смешиваясь с эмигрантами!
Факт, что военных и граждан предприятий заставляют голосовать за партию Единая Россия и Путина
ПОД СТРАХОМ УВОЛЬНЕНИЯ!
Нам не нужно Правительство, блокирующее личную жизнь, интернет, нарушающее сохранность данных.
Все эти действия финансируются за счёт народа!