[Eric Jones] Eric Jones - METAL 4 / Eric Jones - METAL 4 [2018, Coin Magic, WEBRip, ENG] (Видеоурок)

Ответить на тему
Статистика раздачи
Размер:  1,28 GB   |    Зарегистрирован:  9 месяцев 28 дней   |    Скачан:  6 раз

Полного источника не было: 20 минут

 
   
 
 
Автор Сообщение

star21 ®

Пол: Женский

Стаж: 4 года

Сообщений: 551946

Откуда: Екатеринбург

Создавать темы 18-Янв-2019 01:46

[Цитировать]

Eric Jones - METAL 4 / Eric Jones - METAL 4 Автор: Eric Jones
Страна: USA
Тематика: Coin Magic
Тип раздаваемого материала: Видеоурок
Продолжительность: 02:20:07
Год выпуска: 2018Язык: Английский
Перевод: ОтсутствуетСсылка на видеокурс на сайте производителя: https://www.ellusionist.com/metal-4.htmlОписание на русском: Продолжение легендарного проэкта Metal
Описание: Metal 4 contains the coin magic that took Eric Jones into the most successful television shows of his life.From his start performing simple coin tricks on the streets of Philly, to America’s Got Talent (Semi-Finalist), Penn and Teller (he beat them), and Masters of Illusion, Eric did it all with a few coins and these brilliantly crafted routines.Now he's handing the routines over to YOU.In Metal 4: The best of Eric Jones, Eric will teach you methods, nuances and theory for creating magic that resonates deeply with the people watching it. Eric gives you coin magic that, for the first time ever, translates as well on stage as it does in person. This is THE material that he’s personally used to propel his career to stratospheric heights.Whether it’s an audience of 1 person, or 1 million, Metal 4 will teach you the skills required to take your coin magic to a levels you never thought possible.Metal 4 is the Ultimate Collection. Eric’s ‘BEST OF’ material. The routines he chooses when he gets yet another call to perform on TV.Качество: WEBRip
Формат: MP4
Видео кодек: MPEG4
Аудио кодек: AAC
Видео: MPEG-4, 854x480, 16:9, 1177 kbps, 30fps
Аудио: AAC LC, 126 kb/s, 44.1kHz, 2Ch

Скриншоты

MediaInfo

General
Complete name : C:\Users\Enter\Downloads\Video\Eric Jones - Metal 4.mp4
Format : MPEG-4
Format profile : Base Media / Version 2
Codec ID : mp42 (isom/mp42)
File size : 1.28 GiB
Duration : 2 h 20 min
Overall bit rate mode : Variable
Overall bit rate : 1 305 kb/s
Encoded date : UTC 2018-12-10 08:01:37
Tagged date : UTC 2018-12-10 08:01:37Video
ID : 1
Format : AVC
Format/Info : Advanced Video Codec
Format profile : High@L4
Format settings : CABAC / 4 Ref Frames
Format settings, CABAC : Yes
Format settings, RefFrames : 4 frames
Codec ID : avc1
Codec ID/Info : Advanced Video Coding
Duration : 2 h 20 min
Source duration : 2 h 20 min
Bit rate : 1 177 kb/s
Width : 854 pixels
Height : 480 pixels
Display aspect ratio : 16:9
Frame rate mode : Constant
Frame rate : 30.000 FPS
Standard : NTSC
Color space : YUV
Chroma subsampling : 4:2:0
Bit depth : 8 bits
Scan type : Progressive
Bits/(Pixel*Frame) : 0.096
Stream size : 1.15 GiB (90%)
Source stream size : 1.15 GiB (90%)
Language : English
Encoded date : UTC 2018-12-10 08:01:39
Tagged date : UTC 2018-12-10 08:01:39
Color range : Limited
Color primaries : BT.709
Transfer characteristics : BT.709
Matrix coefficients : BT.601
Codec configuration box : avcCAudio
ID : 2
Format : AAC LC
Format/Info : Advanced Audio Codec Low Complexity
Codec ID : mp4a-40-2
Duration : 2 h 20 min
Bit rate mode : Variable
Bit rate : 126 kb/s
Maximum bit rate : 455 kb/s
Channel(s) : 2 channels
Channel layout : L R
Sampling rate : 44.1 kHz
Frame rate : 43.066 FPS (1024 SPF)
Compression mode : Lossy
Stream size : 126 MiB (10%)
Language : English
Encoded date : UTC 2018-12-10 08:01:39
Tagged date : UTC 2018-12-10 08:01:39

Чтобы скачать этот контент, Вам необходимо:
1. Скачать и установить торрент-клиент [клик для Windows], (для мобильного найдите на Play Маркет).
2. Кликнуть по [Скачать]


Внимание.
Если проверка ВЫ НЕ РОБОТ - не работает, значит Вы используете устаревший браузер.
Установите актуальный браузер и повторно кликните по [Скачать]
Безопасность: торрент-клиент разрешён АВ Касперского.

[asmlocator.ru].t596941.torrent 
Торрент: Зарегистрирован [ 2019-01-18 01:45 ] · 026DDCF7AE1FE31A4A479DE72EB3033E192B0330

Скачать .torrent

Скачать

13 KB

Статус: проверено
Скачан: 6 раз
Размер: 1,28 GB
terms.php
[Профиль] [ЛС]
Показать сообщения:    
Ответить на тему

Текущее время: 15-Ноя 19:20

Часовой пояс: UTC ± 0



Вы не можете начинать темы
Вы не можете отвечать на сообщения
Вы не можете редактировать свои сообщения
Вы не можете удалять свои сообщения
Вы не можете голосовать в опросах
Вы не можете прикреплять файлы к сообщениям
Вы можете скачивать файлы
Верим фактам, а не вранью Путина! Факт, что Правительство ведёт Россию к истреблению.
Так как численность населения падает, даже не смотря на приток эмигрантов!
Русская нация вымирает и вырождается, смешиваясь с эмигрантами!
Факт, что военных и граждан предприятий заставляют голосовать за партию Единая Россия и Путина
ПОД СТРАХОМ УВОЛЬНЕНИЯ!
Нам не нужно Правительство, блокирующее личную жизнь, интернет, нарушающее сохранность данных.
Все эти действия финансируются за счёт народа!