Товарищество / Солидарность / Kameradschaft / Comradeship (Георг Вильгельм Пабст / Georg Wilhelm Pabst) [1931, Германия, Франция, драма, BDRip 720p] [Criterion #908] Original (Deu, Fra) + Sub (Rus, Eng, Deu)

Reply to topic
DL-List and Torrent activity
Size:  4.74 GB   |    Registered:  5 months 29 days   |    Completed:  0 times

Seeder not seen: Never

 
   
 
 
Author Message

star21 ®

Gender: Female

Longevity: 3 years 7 months

Posts: 552147

Location: Екатеринбург

Post 18-Dec-2018 19:51

[Quote]

Товарищество / Солидарность / Kameradschaft / Comradeship Год выпуска: 1931
Страна: Германия, Франция
Жанр: драма
Продолжительность: 01:30:06
Перевод: Субтитры
Субтитры: Русские (Кравцев Дмитрий; schabay243387), английские (Criterion), немецкие
Оригинальная аудиодорожка: Немецкий, французскийРежиссер: Георг Вильгельм Пабст / Georg Wilhelm PabstВ ролях: Александр Гранах (Alexander Granach), Фриц Камперс (Fritz Kampers), Эрнст Буш (Ernst Busch), Элизабет Вендт (Elisabeth Wendt), Густав Пютьер (Gustav Püttjer), Оскар Хёкер (Oskar Höcker), Даниэль Мендель (Daniel Mendaille), Жорж Шарля (Georges Charlia), Андрэ Дюкре (Andrée Ducret)Описание:
Основой для фильма послужили события на французской шахте «Курьер», когда после самой крупной в Европе аварии на помощь французским шахтерам прибыли немецкие спасатели из Вестфалии.
После окончания Первой мировой войны в связи с новой границей немецкая шахта поделена между Францией и Германией. Однажды на французской стороне происходит авария. Немецкие шахтеры организуют добровольную спасательную команду и отправляются на помощь французским товарищам. В это время три немецких шахтера, с которыми накануне не очень дружелюбно обошлись на французской стороне, начинают свою спасательную операцию. Люди, совсем недавно воевавшие друг против друга, становятся товарищами. | IMDb | СэмплТип релиза: BDRip 720p (CtrlHD)
Контейнер: MKV
Видео: x264, 854x720 (1.20:1), 23.976 fps, 6895 kbps
Аудио: Немецкий+французский AC3 1.0, 48 kHz, 640 kbps
Формат субтитров: softsub (SRT)

Скриншоты

Encode -||- Source (filtered_gamma=0.88) -||- Source




MI

nfo

Код:
RELEASE NAME....: Kameradschaft 1931 720p BluRay AAC1.0 x264-CtrlHD
RUNTIME.........: 01h:30m:06s
SIZE............: 4.40 GiB
VIDEO CODEC.....: x264, High@L4.1, 2pass, DXVA
FRAMERATE.......: 23.976 FPS
VIDEO BITRATE...: 6895 kbps
RESOLUTION......: 854x720
ASPECT RATIO....: 1.19:1
AUDIO...........: German AAC 1.0 @ 88.2kbps
SUBTITLES.......: English
CHAPTERS........: Included
SOURCE..........: BD (Criterion Collection)
IMDB............: http://www.imdb.com/title/tt0022017/
FILMWEB.........: http://www.filmweb.pl/film/Braterstwo+lud%C3%B3w-1931-35551
ENCODER.........: kaziopompaa
RELEASE DATE....: 08/03/2018[2018-02-28][13:58:57] y4m [info]: 854x720p 0:0 @ 24000/1001 fps (cfr)
[2018-02-28][13:58:57] x264 [info]: using cpu capabilities: MMX2 SSE2Fast SSSE3 SSE4.2 AVX FMA3 BMI2 AVX2
[2018-02-28][13:58:57] x264 [info]: profile High, level 4.1
[2018-03-01][03:25:22] x264 [info]: frame I:680 Avg QP:15.91 size: 74211
[2018-03-01][03:25:22] x264 [info]: frame P:25228 Avg QP:17.98 size: 47886
[2018-03-01][03:25:22] x264 [info]: frame B:103697 Avg QP:19.11 size: 32791
[2018-03-01][03:25:22] x264 [info]: consecutive B-frames: 1.1% 1.9% 5.4% 14.6% 12.8% 44.9% 6.4% 4.8% 8.1%
[2018-03-01][03:25:22] x264 [info]: mb I I16..4: 2.7% 89.1% 8.2%
[2018-03-01][03:25:22] x264 [info]: mb P I16..4: 0.1% 19.4% 0.7% P16..4: 23.9% 36.3% 17.0% 0.0% 0.0% skip: 2.7%
[2018-03-01][03:25:22] x264 [info]: mb B I16..4: 0.0% 4.2% 0.1% B16..8: 39.2% 27.2% 9.1% direct:13.5% skip: 6.7% L0:48.3% L1:38.3% BI:13.4%
[2018-03-01][03:25:22] x264 [info]: 8x8 transform intra:96.2% inter:63.7%
[2018-03-01][03:25:22] x264 [info]: direct mvs spatial:95.7% temporal:4.3%
[2018-03-01][03:25:22] x264 [info]: coded y,uvDC,uvAC intra: 98.6% 0.0% 0.0% inter: 79.8% 0.0% 0.0%
[2018-03-01][03:25:22] x264 [info]: i16 v,h,dc,p: 40% 11% 19% 30%
[2018-03-01][03:25:22] x264 [info]: i8 v,h,dc,ddl,ddr,vr,hd,vl,hu: 10% 7% 7% 11% 13% 14% 11% 15% 11%
[2018-03-01][03:25:22] x264 [info]: i4 v,h,dc,ddl,ddr,vr,hd,vl,hu: 10% 7% 3% 9% 16% 18% 12% 15% 10%
[2018-03-01][03:25:22] x264 [info]: i8c dc,h,v,p: 39% 61% 0% 0%
[2018-03-01][03:25:22] x264 [info]: Weighted P-Frames: Y:29.0% UV:0.0%
[2018-03-01][03:25:22] x264 [info]: ref P L0: 35.2% 12.6% 14.8% 8.5% 6.1% 4.9% 4.1% 2.8% 2.4% 2.3% 2.0% 1.9% 1.9% 0.5% 0.0%
[2018-03-01][03:25:22] x264 [info]: ref B L0: 58.1% 15.2% 8.5% 4.5% 3.4% 2.8% 2.3% 1.5% 1.4% 1.3% 0.8% 0.3%
[2018-03-01][03:25:22] x264 [info]: ref B L1: 90.6% 9.4%
[2018-03-01][03:25:22] x264 [info]: kb/s:6894.86
[2018-03-01][03:25:22] encoded 129605 frames, 2.68 fps, 6894.86 kb/s
General
Unique ID : 25208244116991698510017265008678645930 (0x12F6EE645EDF730C24C1C947EDCDB0AA)
Complete name : Kameradschaft.1931.720p.BluRay.DD1.0.x264-CtrlHD.mkv
Format : Matroska
Format version : Version 2
File size : 4.74 GiB
Duration : 1 h 30 min
Overall bit rate : 7 537 kb/s
Movie name : Kameradschaft / Comradeship / Товарищество (1931) – RuTracker
Encoded date : UTC 2018-12-16 19:33:00
Writing application : mkvmerge v29.0.0 ('Like It Or Not') 64-bit
Writing library : libebml v1.3.6 + libmatroska v1.4.9
Cover : Yes
Attachments : cover.jpgVideo
ID : 1
Format : AVC
Format/Info : Advanced Video Codec
Format profile : High@L4.1
Format settings : CABAC / 13 Ref Frames
Format settings, CABAC : Yes
Format settings, RefFrames : 13 frames
Codec ID : V_MPEG4/ISO/AVC
Duration : 1 h 30 min
Bit rate : 6 895 kb/s
Width : 854 pixels
Height : 720 pixels
Display aspect ratio : 1.186
Frame rate mode : Constant
Frame rate : 23.976 (24000/1001) FPS
Color space : YUV
Chroma subsampling : 4:2:0
Bit depth : 8 bits
Scan type : Progressive
Bits/(Pixel*Frame) : 0.468
Stream size : 4.34 GiB (91%)
Title : Kameradschaft.1931.720p.BluRay.AAC1.0.x264-CtrlHD
Writing library : x264 core 152 r2851 ba24899
Encoding settings : cabac=1 / ref=13 / deblock=1:-3:-3 / analyse=0x3:0x113 / me=umh / subme=11 / psy=1 / psy_rd=1.10:0.00 / mixed_ref=1 / me_range=24 / chroma_me=1 / trellis=2 / 8x8dct=1 / cqm=0 / deadzone=21,11 / fast_pskip=0 / chroma_qp_offset=-2 / threads=6 / lookahead_threads=1 / sliced_threads=0 / nr=0 / decimate=0 / interlaced=0 / bluray_compat=0 / constrained_intra=0 / bframes=8 / b_pyramid=2 / b_adapt=2 / b_bias=0 / direct=3 / weightb=1 / open_gop=0 / weightp=2 / keyint=250 / keyint_min=23 / scenecut=40 / intra_refresh=0 / rc=2pass / mbtree=0 / bitrate=6895 / ratetol=1.0 / qcomp=0.65 / qpmin=0 / qpmax=69 / qpstep=4 / cplxblur=20.0 / qblur=0.5 / ip_ratio=1.30 / pb_ratio=1.20 / aq=3:0.70
Language : German
Default : Yes
Forced : NoAudio
ID : 2
Format : AC-3
Format/Info : Audio Coding 3
Codec ID : A_AC3
Duration : 1 h 30 min
Bit rate mode : Constant
Bit rate : 640 kb/s
Channel(s) : 1 channel
Channel positions : Front: C
Sampling rate : 48.0 kHz
Frame rate : 31.250 FPS (1536 SPF)
Bit depth : 16 bits
Compression mode : Lossy
Stream size : 412 MiB (8%)
Title : French, German
Language : Multiple languages
Service kind : Complete Main
Default : Yes
Forced : NoText #1
ID : 3
Format : UTF-8
Codec ID : S_TEXT/UTF8
Codec ID/Info : UTF-8 Plain Text
Duration : 1 h 29 min
Bit rate : 41 b/s
Count of elements : 515
Stream size : 27.5 KiB (0%)
Title : Кравцев Дмитрий
Language : Russian
Default : Yes
Forced : NoText #2
ID : 4
Format : UTF-8
Codec ID : S_TEXT/UTF8
Codec ID/Info : UTF-8 Plain Text
Duration : 1 h 29 min
Bit rate : 43 b/s
Count of elements : 529
Stream size : 28.5 KiB (0%)
Title : schabay243387
Language : Russian
Default : No
Forced : NoText #3
ID : 5
Format : UTF-8
Codec ID : S_TEXT/UTF8
Codec ID/Info : UTF-8 Plain Text
Duration : 1 h 28 min
Bit rate : 25 b/s
Count of elements : 583
Stream size : 16.8 KiB (0%)
Title : Criterion
Language : English
Default : No
Forced : NoText #4
ID : 6
Format : UTF-8
Codec ID : S_TEXT/UTF8
Codec ID/Info : UTF-8 Plain Text
Duration : 1 h 26 min
Bit rate : 10 b/s
Count of elements : 240
Stream size : 6.84 KiB (0%)
Title : French parts only
Language : German
Default : No
Forced : NoText #5
ID : 7
Format : UTF-8
Codec ID : S_TEXT/UTF8
Codec ID/Info : UTF-8 Plain Text
Duration : 1 h 27 min
Bit rate : 23 b/s
Count of elements : 476
Stream size : 15.2 KiB (0%)
Language : German
Default : No
Forced : NoText #6
ID : 8
Format : UTF-8
Codec ID : S_TEXT/UTF8
Codec ID/Info : UTF-8 Plain Text
Duration : 1 h 28 min
Bit rate : 27 b/s
Count of elements : 546
Stream size : 17.5 KiB (0%)
Title : SDH
Language : German
Default : No
Forced : NoMenu
00:00:00.000 : en:01. Credits
00:01:47.524 : en:02. “Must you always fight?”
00:04:50.957 : en:03. “As long as there’s no gas...”
00:09:38.036 : en:04. The dance hall
00:15:55.538 : en:05. “They’re always talking about fires”
00:20:10.167 : en:06. “Fire!”
00:24:16.121 : en:07. “Our husbands are down there”
00:30:21.486 : en:08. The German miners
00:35:48.313 : en:09. “We’re volunteering”
00:41:52.593 : en:10. “Georges!”
00:48:14.100 : en:11. “Open the gate!”
00:57:20.729 : en:12. Border, 1919
01:03:50.076 : en:13. Collapse
01:14:46.357 : en:14. “Five men trapped”14. “Five men trapped”
01:24:21.056 : en:15. “We’re all miners”

To download the content you need:
1. Download and install torrent client [for Windows] or for mobile system
2. Click on [Download]
Attention.
If the test YOU are NOT a ROBOT - does not work, then You are using an outdated browser.
Install the current browser and click on [Download]
Security: torrent client is allowed by Kaspersky.

[asmlocator.ru].t596689.torrent 
Torrent: Registered [ 2018-12-18 19:50 ] · B421749EC050803E920D4853C8C72A510DFEAF2E

Download .torrent

Download

24 KB

Status: checked
Completed: 0 times
Size: 4.74 GB
terms.php
[Profile] [PM]
Display posts:    
Reply to topic

Current time is: 16-Jun 23:57

All times are UTC ± 0



You cannot post new topics in this forum
You cannot reply to topics in this forum
You cannot edit your posts in this forum
You cannot delete your posts in this forum
You cannot vote in polls in this forum
You cannot attach files in this forum
You can download files in this forum