ПЛОСКАЯ ЗЕМЛЯ - скрываемая правда / Flat Earth the hidden truth (Эрик Дубэй) [2017, Истина, DVD5]

Reply to topic
DL-List and Torrent activity
Size:  1.89 GB   |    Registered:  5 months 29 days   |    Completed:  0 times

Seeder not seen: 3 months 22 days

 
   
 
 
Author Message

star21 ®

Gender: Female

Longevity: 3 years 7 months

Posts: 552147

Location: Екатеринбург

Post 18-Dec-2018 19:50

[Quote]

ПЛОСКАЯ ЗЕМЛЯ - скрываемая правда / Flat Earth the hidden truth Год выпуска: 2017
Страна: USA
Жанр: Истина
Продолжительность: 6:34:09
Перевод: Профессиональный (дублированный)
Доп. инфо о переводе: Эрик Дубэй
Русские субтитры: нетРежиссер: Эрик ДубэйОписание: Скрываемая правда о плоской земле с сотней научными доказательствами То что скрывали на протяжении столетий сейчас как никогда актуальна тема плоской земли . Заговор мировой элиты создания матрицы внутри нашего мозга шара глобуса замкнутого пространства с целью поработить подавить наше мышление скрыть истину мироздания и Создателя вселенной то есть Бога. Это видео перевернет все о чем вы раньше боялись думать размышлять о форме земли и Создателе Бога , здесь научно опровергаются не состоявшиеся теории шарообразно гелиоцентричной земли , новые разоблачения космических агенств Nasa и других лже ученых средневековья по сегодняшний день.Главы (разбивка по трекам): есть
Качество: DVD5
Формат: DVD Video
Видео кодек: MPEG2
Аудио кодек: MP2
Видео: H264-MPEG-4AVC(part10)(avc1),1280x720, битрейт входного патока 10265kb/s, частота кадров: 29.970029
Аудио: язык английский русский перевод, MPEG AACAudio (mp4a), стерео, 44100 Гц

DVDInfo

ОбщееПолное имя                               : D:\ПЛОСКАЯ ЗЕМЛЯ - скрываемая правда  Аудиокнига  УДАЛЕННОЕ ВИДЕО!!!.mp4Формат                                   : MPEG-4Профиль формата                          : Base MediaИдентификатор кодека                     : isom (isom/iso2/avc1/mp41)Размер файла                             : 1,89 ГбайтПродолжительность                        : 6 ч. 34 м.Общий поток                              : 686 Кбит/секПрограмма кодирования                    : Lavf57.72.101ВидеоИдентификатор                            : 1Формат                                   : AVCФормат/Информация                        : Advanced Video CodecПрофиль формата                          : Main@L3.1Настройки формата                        : CABAC / 3 Ref FramesПараметр CABAC формата                   : ДаПараметр RefFrames формата               : 3 кадраИдентификатор кодека                     : avc1Идентификатор кодека/Информация          : Advanced Video CodingПродолжительность                        : 6 ч. 34 м.Битрейт                                  : 552 Кбит/секШирина                                   : 1280 пикселейВысота                                   : 720 пикселейСоотношение сторон                       : 16:9Режим частоты кадров                     : ПостоянныйЧастота кадров                           : 29,970 (30000/1001) кадров/секЦветовое пространство                    : YUVСубдискретизация насыщенности            : 4:2:0Битовая глубина                          : 8 битТип развёртки                            : ПрогрессивнаяБит/(Пиксели*Кадры)                      : 0.020Размер потока                            : 1,52 Гбайт (81%)Цветовой диапазон                        : LimitedОсновные цвета                           : BT.709Характеристики трансфера                 : BT.709Коэффициенты матрицы                     : BT.709Codec configuration box                  : avcCАудиоИдентификатор                            : 2Формат                                   : AAC LCФормат/Информация                        : Advanced Audio Codec Low ComplexityИдентификатор кодека                     : mp4a-40-2Продолжительность                        : 6 ч. 34 м.Вид битрейта                             : ПостоянныйБитрейт                                  : 126 Кбит/секКаналы                                   : 2 каналаChannel layout                           : L RЧастота                                  : 44,1 КГцЧастота кадров                           : 43,066 кадра/сек (1024 SPF)Метод сжатия                             : С потерямиРазмер потока                            : 354 Мбайт (18%)Язык                                     : EnglishDefault                                  : ДаAlternateGroup/String                    : 1

Скриншоты
























To download the content you need:
1. Download and install torrent client [for Windows] or for mobile system
2. Click on [Download]
Attention.
If the test YOU are NOT a ROBOT - does not work, then You are using an outdated browser.
Install the current browser and click on [Download]
Security: torrent client is allowed by Kaspersky.

[asmlocator.ru].t596648.torrent 
Torrent: Registered [ 2018-12-18 19:50 ] · FC3390D18A5272AD47BC633FA9AC8EE0E2026059

Download .torrent

Download

19 KB

Status: checked
Completed: 0 times
Size: 1.89 GB
terms.php
[Profile] [PM]
Display posts:    
Reply to topic

Current time is: 16-Jun 23:57

All times are UTC ± 0



You cannot post new topics in this forum
You cannot reply to topics in this forum
You cannot edit your posts in this forum
You cannot delete your posts in this forum
You cannot vote in polls in this forum
You cannot attach files in this forum
You can download files in this forum