Мой друг - человек несерьёзный (Янис Стрейч) [1975, комедийная мелодрама, SATRip-AVC]

Reply to topic
DL-List and Torrent activity
Size:  701 MB   |    Registered:  5 months 29 days   |    Completed:  1 time

Seeder not seen: 3 minutes

 
   
 
 
Author Message

star21 ®

Gender: Female

Longevity: 3 years 7 months

Posts: 552147

Location: Екатеринбург

Post 18-Dec-2018 19:50

[Quote]

Мой друг - человек несерьёзный Жанр: комедийная мелодрама
Студия: Рижская киностудия
Год выпуска: 1975
Продолжительность: 01:30:37Режиссёр: Янис СтрейчВ ролях: Янис Паукштелло, Галина Мацулевич, Дзидра Ритенберга, Алексей Михайлов, Лилита Берзиня-Приеде, Эвалдс Валтерс, Валдис Лиепинь, Янис Лиепинь, Эдуард Павулс, Ольгерт Дункерс, Раймондс Аушкапс, Волдемар Лобиньш, Мара Звайгзне, Арийс Гейкинс, Бертулис Пизич, Элита Крастиня, Аквелина Ливмане, Илгонис ШвикаОписание: Арвид Ласманис, принципиальный и честный человек, в очередной раз увольняется с работы. Расстроенная теща Мирдза сама решает заняться зятем и устраивает его на работу в передовую бригаду своего старого друга Эдгара. Но и здесь Арвид сталкивается все с теми же приписками и показухой. Теперь ему придется бороться не только с начальниками, но и со всеми членами своей семьи...
Доп. информация: Исходник: http://rutracker.org/forum/viewtopic.php?t=4301442
Кроп (черные полосы сверху и снизу) плавающий, по скринам это видно.Семпл: https://www.sendspace.com/file/v4ou4nКачество видео: SATRip
Формат видео: MKVВидео: 688х312 (2,2:1), 4:2:0, 25.00 fps, AVC ~1031 Kbps avg, ~0.192/pixel
Аудио: 48.0 kHz, HE-AACv2 , 2/0 (L,R) ch, ~48.00 kbps

MediaInfo

Мой друг-человек несерьёзный (СССР.1975) SATrip.mkv
Формат : Matroska
Версия формата : Version 4 / Version 2
Размер файла : 701 Мбайт
Продолжительность : 1 ч. 30 м.
Общий поток : 1081 Кбит/сек
Дата кодирования : UTC 2018-12-16 18:41:53
Программа кодирования : mkvmerge v25.0.0 ('Prog Noir') 64-bit
Библиотека кодирования : libebml v1.3.6 + libmatroska v1.4.9Видео
Идентификатор : 1
Формат : AVC
Формат/Информация : Advanced Video Codec
Профиль формата : High@L4.1
Параметр CABAC формата : Да
Параметр ReFrames формата : 16 кадров
Идентификатор кодека : V_MPEG4/ISO/AVC
Продолжительность : 1 ч. 30 м.
Битрейт : 1031 Кбит/сек
Ширина : 688 пикселей
Высота : 312 пикселей
Соотношение сторон : 2,2:1
Режим частоты кадров : Постоянный
Частота кадров : 25,000 кадров/сек
Цветовое пространство : YUV
Субдискретизация насыщенности : 4:2:0
Битовая глубина : 8 бит
Тип развёртки : Прогрессивная
Бит/(Пиксели*Кадры) : 0.192
Размер потока : 668 Мбайт (95%)
Библиотека кодирования : x264 core 157 r2935 545de2f
Настройки программы : cabac=1 / ref=16 / deblock=1:-3:-3 / analyse=0x3:0x133 / me=umh / subme=10 / psy=1 / psy_rd=1.05:0.10 / mixed_ref=1 / me_range=32 / chroma_me=1 / trellis=2 / 8x8dct=1 / cqm=0 / deadzone=21,11 / fast_pskip=0 / chroma_qp_offset=-3 / threads=10 / lookahead_threads=2 / sliced_threads=0 / nr=0 / decimate=0 / interlaced=0 / bluray_compat=0 / constrained_intra=0 / bframes=14 / b_pyramid=2 / b_adapt=2 / b_bias=0 / direct=3 / weightb=1 / open_gop=0 / weightp=2 / keyint=250 / keyint_min=25 / scenecut=40 / intra_refresh=0 / rc_lookahead=60 / rc=2pass / mbtree=1 / bitrate=1031 / ratetol=1.0 / qcomp=0.80 / qpmin=0 / qpmax=69 / qpstep=4 / cplxblur=20.0 / qblur=0.5 / vbv_maxrate=62500 / vbv_bufsize=78125 / nal_hrd=none / filler=0 / ip_ratio=1.40 / aq=1:1.00
Default : Да
Forced : НетАудио
Идентификатор : 2
Формат : AAC
Формат/Информация : Advanced Audio Codec
Профиль формата : HE-AACv2 / HE-AAC / LC
Идентификатор кодека : A_AAC
Продолжительность : 1 ч. 30 м.
Битрейт : 48,0 Кбит/сек
Каналы : 2 канала / 1 канал / 1 канал
Расположение каналов : Front: L R / Front: C / Front: C
Частота : 48,0 КГц / 48,0 КГц / 24,0 КГц
Частота кадров : 23,438 кадра/сек (1024 spf)
Метод сжатия : С потерями
Задержка видео : 117 мс.
Размер потока : 31,1 Мбайт (4%)
Default : Да
Forced : Нет

Скриншоты


To download the content you need:
1. Download and install torrent client [for Windows] or for mobile system
2. Click on [Download]
Attention.
If the test YOU are NOT a ROBOT - does not work, then You are using an outdated browser.
Install the current browser and click on [Download]
Security: torrent client is allowed by Kaspersky.

[asmlocator.ru].t596647.torrent 
Torrent: Registered [ 2018-12-18 19:50 ] · 8465B9BAD511845ED64C103D1498242F26DE7745

Download .torrent

Download

14 KB

Status: checked
Completed: 1 times
Size: 701 MB
terms.php
[Profile] [PM]
Display posts:    
Reply to topic

Current time is: 16-Jun 23:58

All times are UTC ± 0



You cannot post new topics in this forum
You cannot reply to topics in this forum
You cannot edit your posts in this forum
You cannot delete your posts in this forum
You cannot vote in polls in this forum
You cannot attach files in this forum
You can download files in this forum