Воин-призрак / Ghost Warrior (Кэрролл Ларри Дж. / J. Larry Carroll) [1984, США, Фантастика, боевик, драма, VHSRip] [FullScreen] AVO (Петр Карцев / ЕА)

Reply to topic
DL-List and Torrent activity
Size:  1.36 GB   |    Registered:  6 months 8 days   |    Completed:  0 times

Seeder not seen: Never

 
   
 
 
Author Message

star21 ®

Gender: Female

Longevity: 3 years 7 months

Posts: 552115

Location: Екатеринбург

Post 18-Dec-2018 19:50

[Quote]

Воин-призрак / Ghost Warrior[FullScreen]«Forgotten by time...Awakened by science...An ancient warrior faces the battle of his life»
Страна: США
Жанр: Фантастика, боевик, драма
Год выпуска: 1984
Продолжительность: 01:20:41Перевод: Авторский (одноголосый закадровый) Петр Карцев / ЕА
Субтитры: нет
Режиссер: Кэрролл Ларри Дж. / J. Larry CarrollВ ролях: Хироши Фудзиока /Hiroshi Fujioka/, Джэнет Джулиэн /Janet Julian/, Чарлз Лэмпкин, Джон Кэлвин, Фрэнк Шуллер, Билл Мори, Энди Вуд /Andy Wood/, Роберт Кайно, Джоэн Фоули /Joan Foley/, Питер Ляпис /Peter Liapis/, Миеко КобаяшиОписание: 1552 год. На глазах у самурая Йоси убивают любимую, а его самого сбрасывают в ледяное озеро. В наши дни сохранившееся во льду тело Йоси доставляют в США в секретную лабораторию, где древнего воина возвращают к жизни. Один из сотрудников лаборатории попытался стащить самурайский меч, за что и поплатился жизнью. Встревоженный самурай сбегает из больницы на свободу, где на улицах современного Лос-Анджелеса его окружает совершенно чужой и непонятный мир. Однако, когда он становится свидетелем нападения на беззащитного прохожего, Йоси спасает жертву грабежа. Предводитель банды выслеживает самурая и приводит с собой подмогу. Йоси и на этот раз расправляется с подонками. Но затем охоту на него начинает и полиция, разыскивающая древнего воина из лаборатории. Через четыре столетия история повторяется - самурай вновь оказывается один против всех...Доп. информация: Оцифровка лицензионной VHS (личный архив) и получение VHSRip alenavova Эксклюзив для rutracker.org. При размещении данного релиза на других сайтах ссылка на автора alenavova обязательна.Релиз Сэмпл: https://yadi.sk/i/fFUHowjHX-2xJwКачество видео: VHSRip
Формат видео: AVIВидео: 704x528 (1.33:1), 25 fps, XviD build 73 ~2219 kbps avg, 0.24 bit/pixel
Аудио: 48 kHz, AC3 Dolby Digital, 2/0 (L,R) ch, ~192 kbps

MediaInfo

Воин-призрак - Ghost Warrior (by alenavova).aviFormat                      : AVIFormat/Info                 : Audio Video InterleaveFile size                   : 1.36 GiBDuration                    : 1 h 20 minOverall bit rate            : 2 422 kb/sMovie name                  : Воин-призрак - Ghost Warrior (by alenavova)Director                    : by alenavovaWriting application         : VirtualDubMod 1.5.10.3 | www.virtualdub-fr.org || (build 2550/release)Copyright                   : Edich2Comment                     : Rutracker.orgVideoID                          : 0Format                      : MPEG-4 VisualFormat profile              : Advanced Simple@L5Format settings             : BVOP1 / Custom MatrixFormat settings, BVOP       : 1Format settings, QPel       : NoFormat settings, GMC        : No warppointsFormat settings, Matrix     : CustomCodec ID                    : XVIDCodec ID/Hint               : XviDDuration                    : 1 h 20 minBit rate                    : 2 220 kb/sWidth                       : 704 pixelsHeight                      : 528 pixelsDisplay aspect ratio        : 4:3Frame rate                  : 25.000 FPSColor space                 : YUVChroma subsampling          : 4:2:0Bit depth                   : 8 bitsScan type                   : ProgressiveCompression mode            : LossyBits/(Pixel*Frame)          : 0.239Stream size                 : 1.25 GiB (92%)Writing library             : XviD 73AudioID                          : 1Format                      : AC-3Format/Info                 : Audio Coding 3Codec ID                    : 2000Duration                    : 1 h 20 minBit rate mode               : ConstantBit rate                    : 192 kb/sChannel(s)                  : 2 channelsChannel positions           : Front: L RSampling rate               : 48.0 kHzFrame rate                  : 31.250 FPS (1536 SPF)Bit depth                   : 16 bitsCompression mode            : LossyStream size                 : 111 MiB (8%)Alignment                   : Split accross interleavesInterleave, duration        : 40  ms (1.00 video frame)Interleave, preload duratio : 500  msService kind                : Complete Main

Скриншоты


To download the content you need:
1. Download and install torrent client [for Windows] or for mobile system
2. Click on [Download]
Attention.
If the test YOU are NOT a ROBOT - does not work, then You are using an outdated browser.
Install the current browser and click on [Download]
Security: torrent client is allowed by Kaspersky.

[asmlocator.ru].t596642.torrent 
Torrent: Registered [ 2018-12-18 19:50 ] · 7E6BC58EE6956AE0C91A78C3C43E926FA026A79A

Download .torrent

Download

14 KB

Status: checked
Completed: 0 times
Size: 1.36 GB
terms.php
[Profile] [PM]
Display posts:    
Reply to topic

Current time is: 27-Jun 07:06

All times are UTC ± 0



You cannot post new topics in this forum
You cannot reply to topics in this forum
You cannot edit your posts in this forum
You cannot delete your posts in this forum
You cannot vote in polls in this forum
You cannot attach files in this forum
You can download files in this forum