Мир без женщин / Поломка / Un monde sans femmes / Le naufragé (Гийом Брак / Guillaume Brac) [2011, Франция, драма, комедия, DVDRip] VO (Александр Дасевич)

Reply to topic
DL-List and Torrent activity
Size:  1.36 GB   |    Registered:  5 months 29 days   |    Completed:  0 times

Seeder not seen: 3 months 22 days

 
   
 
 
Author Message

star21 ®

Gender: Female

Longevity: 3 years 7 months

Posts: 552147

Location: Екатеринбург

Post 18-Dec-2018 19:50

[Quote]

Мир без женщин / Поломка / Un monde sans femmes / Le naufragé Страна: Франция
Жанр: драма, комедия
Год выпуска: 2011
Продолжительность: 01:19:25Перевод: Одноголосый закадровый Александр Дасевич
Субтитры: нет
Режиссер: Гийом Брак / Guillaume Brac
В ролях: Венсан Макен, Лорэ Кэлами, Констанс Руссо, Лорен Папо, Джеффри Буланжер, Седрик Кайё, Мари Пикард, Френсин БуланжерОписание: Маленький курорт на берегу Пикардии. Последняя неделя августа. Сильвен, сдавая в аренду квартиру, знакомится с двумя привлекательными женщинами. Одинокому мужчине, в жизни которого напрочь отсутствуют женщины, наконец-то представится долгожданный, но мимолётный случай. Очень быстро Сильвен становиться необходимым для своих новых друзей. Но всё усложняется в тот момент, когда приходят чувства, и особенно, когда появляется Жиль, местный бессовестный бабник... Сэмпл: http://multi-up.com/1217518Качество видео: DVDRip (Исходник - DVD9)
Формат видео: AVIВидео: XviD 73, 704x384, (1,85:1), 25,000 fps, 2256 Кбит/с, 8 бит, 0.33 bit/pixel
Аудио: Русский (АС3, 2 ch (Front: L R), 48,0 KHz, 192 Kbps)

MediaInfo

ОбщееПолное имя                               : H:\Фильмы на трекер\Мир без женщин  (драма, комедия 2011 год).aviФормат                                   : AVIФормат/Информация                        : Audio Video InterleaveРазмер файла                             : 1,36 ГбайтПродолжительность                        : 1 ч. 19 м.Общий поток                              : 2458 Кбит/секПрограмма кодирования                    : VirtualDubMod 1.5.10.2 (build 2540/release)Библиотека кодирования                   : VirtualDubMod build 2540/releaseВидеоИдентификатор                            : 0Формат                                   : MPEG-4 VisualПрофиль формата                          : Advanced Simple@L5Параметр BVOP формата                    : 2Параметр QPel формата                    : НетПараметр GMC формата                     : Без точки переходаПараметр матрицы формата                 : ВыборочнаяИдентификатор кодека                     : XVIDИдентификатор кодека/Подсказка           : XviDПродолжительность                        : 1 ч. 19 м.Битрейт                                  : 2256 Кбит/секШирина                                   : 704 пикселяВысота                                   : 384 пикселяСоотношение сторон                       : 1,85:1Частота кадров                           : 25,000 кадров/секЦветовое пространство                    : YUVСубдискретизация насыщенности            : 4:2:0Битовая глубина                          : 8 битТип развёртки                            : ПрогрессивнаяМетод сжатия                             : С потерямиБит/(Пиксели*Кадры)                      : 0.334Размер потока                            : 1,25 Гбайт (92%)Библиотека кодирования                   : XviD 73АудиоИдентификатор                            : 1Формат                                   : AC-3Формат/Информация                        : Audio Coding 3Расширение режима                        : CM (complete main)Параметр Endianness формата              : BigИдентификатор кодека                     : 2000Продолжительность                        : 1 ч. 19 м.Вид битрейта                             : ПостоянныйБитрейт                                  : 192 Кбит/секКаналы                                   : 2 каналаРасположение каналов                     : Front: L RЧастота                                  : 48,0 КГцЧастота кадров                           : 31,250 кадров/сек (1536 spf)Метод сжатия                             : С потерямиРазмер потока                            : 109 Мбайт (8%)Выравнивание                             : Разделение по промежуткамПродолжительность промежутка             : 40  мс. (1,00 видеокадр)Время предзагрузки промежутка            : 500  мс.

Скриншот c названием фильма

Скриншоты


To download the content you need:
1. Download and install torrent client [for Windows] or for mobile system
2. Click on [Download]
Attention.
If the test YOU are NOT a ROBOT - does not work, then You are using an outdated browser.
Install the current browser and click on [Download]
Security: torrent client is allowed by Kaspersky.

[asmlocator.ru].t596603.torrent 
Torrent: Registered [ 2018-12-18 19:50 ] · 90BC84F5C40C29FE289450D3C2FF1214E4F65CA4

Download .torrent

Download

14 KB

Status: checked
Completed: 0 times
Size: 1.36 GB
terms.php
[Profile] [PM]
Display posts:    
Reply to topic

Current time is: 17-Jun 00:01

All times are UTC ± 0



You cannot post new topics in this forum
You cannot reply to topics in this forum
You cannot edit your posts in this forum
You cannot delete your posts in this forum
You cannot vote in polls in this forum
You cannot attach files in this forum
You can download files in this forum