(Neo-Folk (Нео-фолк) / Ethnic Fusion) [CD] Illaria - 13 Mісяців - 2013, FLAC (tracks+.cue), lossless

Reply to topic
DL-List and Torrent activity
Size:  264 MB   |    Registered:  6 months 2 days   |    Completed:  0 times

Seeder not seen: Never

 
   
 
 
Author Message

star21 ®

Gender: Female

Longevity: 3 years 7 months

Posts: 552147

Location: Екатеринбург

Post 14-Dec-2018 12:30

[Quote]

Illaria / 13 Mісяців Жанр: Neo-Folk / Ethnic Fusion
Носитель: CD
Страна-производитель диска (релиза): Украина
Год издания: 2013
Издатель (лейбл): Rostok Records
Номер по каталогу: n/a
Страна исполнителя (группы): Украина
Аудиокодек: FLAC (*.flac)
Тип рипа: tracks+.cue
Битрейт аудио: lossless
Продолжительность: 00:42:51
Источник (релизер): toloka
Наличие сканов в содержимом раздачи: нет01. Ой, Ти Жайворонку [3:18]
02. Вербовая Дощечка [3:22]
03. Проведу Свою Русалочку [2:29]
04. Й Уберемо Куста [3:19]
05. На Івана, На Купайла [3:06]
06. Ой, Верше Мій, Верше [2:32]
07. Ой, Літає Соколоньку [3:20]
08. Цвіте Терен [3:50]
09. Кам'яна Гора [3:46]
10. Ой, Спи Дитя [1:26]
11. Ой, Ходить Сон Коло Вікон [3:38]
12. Ой, Сивая Тая Зозуленька [4:35]
13. Божа Мати [4:11]

Лог создания рипа

Exact Audio Copy V1.0 beta 3 from 29. August 2011Отчёт EAC об извлечении, выполненном 3. июня 2014, 11:12Illaria / 2013 - 13 MісяцівДисковод: ASUS    DRW-2014S1T   Adapter: 2  ID: 8Режим чтения                 : ДостоверностьИспользование точного потока : ДаОтключение кэша аудио        : ДаИспользование указателей C2  : НетКоррекция смещения при чтении                     : 6Способность читать области Lead-in и Lead-out     : НетЗаполнение пропущенных сэмплов тишиной            : ДаУдаление блоков с тишиной в начале и конце        : НетПри вычислениях CRC использовались нулевые сэмплы : ДаИнтерфейс                                         : Встроенный Win32-интерфейс для Win NT/2000Обработка зазоров                                 : Добавлено к предыдущему трекуВыходной формат          : Пользовательский кодировщикВыбранный битрейт        : 128 kBit/sКачество                 : ВысокийДобавление ID3-тега      : НетУтилита сжатия           : C:\Program Files\Exact Audio Copy\Flac\flac.exeДополнительные параметры : -V -8 -T "Genre=%genre%" -T "Artist=%artist%" -T "Title=%title%" -T "Album=%albumtitle%" -T "Date=%year%" -T "Tracknumber=%tracknr%" -T "Comment=%comment%" %source%TOC извлечённого CD     Трек |   Старт  | Длительность | Начальный сектор | Конечный сектор    ---------------------------------------------------------------------       1  |  0:00.00 |    3:17.66   |           0      |      14840       2  |  3:17.66 |    3:22.10   |       14841      |      30000       3  |  6:40.01 |    2:29.03   |       30001      |      41178       4  |  9:09.04 |    3:18.45   |       41179      |      56073       5  | 12:27.49 |    3:06.26   |       56074      |      70049       6  | 15:34.00 |    2:32.10   |       70050      |      81459       7  | 18:06.10 |    3:20.00   |       81460      |      96459       8  | 21:26.10 |    3:49.63   |       96460      |     113697       9  | 25:15.73 |    3:45.61   |      113698      |     130633      10  | 29:01.59 |    1:25.67   |      130634      |     137075      11  | 30:27.51 |    3:38.04   |      137076      |     153429      12  | 34:05.55 |    4:34.57   |      153430      |     174036      13  | 38:40.37 |    4:10.50   |      174037      |     192836Трек  1     Имя файла D:\Documents and Settings\user\Рабочий стол\«»—0–\01 Illaria Ой, Ти Жайворонку.wav     Длина предзазора  0:00:02.00     Пиковый уровень 94.0 %     Скорость извлечения 3.4 X     Качество трека 99.9 %     CRC копии 6D2ABBD0     Копирование... OKТрек  2     Имя файла D:\Documents and Settings\user\Рабочий стол\«»—0–\02 Illaria Вербовая Дощечка.wav     Пиковый уровень 100.0 %     Скорость извлечения 5.1 X     Качество трека 100.0 %     CRC копии E61602E5     Копирование... OKТрек  3     Имя файла D:\Documents and Settings\user\Рабочий стол\«»—0–\03 Illaria Проведу Свою Русалочку.wav     Длина предзазора  0:00:02.00     Пиковый уровень 93.3 %     Скорость извлечения 4.3 X     Качество трека 99.9 %     CRC копии 82A58E9A     Копирование... OKТрек  4     Имя файла D:\Documents and Settings\user\Рабочий стол\«»—0–\04 Illaria Й Уберемо Куста.wav     Пиковый уровень 100.0 %     Скорость извлечения 5.8 X     Качество трека 100.0 %     CRC копии D902C2B0     Копирование... OKТрек  5     Имя файла D:\Documents and Settings\user\Рабочий стол\«»—0–\05 Illaria На Івана, На Купайла.wav     Длина предзазора  0:00:02.00     Пиковый уровень 100.0 %     Скорость извлечения 6.1 X     Качество трека 100.0 %     CRC копии E6A5DA68     Копирование... OKТрек  6     Имя файла D:\Documents and Settings\user\Рабочий стол\«»—0–\06 Illaria Ой, Верше Мій, Верше.wav     Длина предзазора  0:00:02.00     Пиковый уровень 81.9 %     Скорость извлечения 6.2 X     Качество трека 100.0 %     CRC копии EBEC5740     Копирование... OKТрек  7     Имя файла D:\Documents and Settings\user\Рабочий стол\«»—0–\07 Illaria Ой, Літає Соколоньку.wav     Длина предзазора  0:00:02.00     Пиковый уровень 100.0 %     Скорость извлечения 6.7 X     Качество трека 100.0 %     CRC копии 437F0F26     Копирование... OKТрек  8     Имя файла D:\Documents and Settings\user\Рабочий стол\«»—0–\08 Illaria Цвіте Терен.wav     Длина предзазора  0:00:02.00     Пиковый уровень 100.0 %     Скорость извлечения 7.2 X     Качество трека 100.0 %     CRC копии 65EC2A80     Копирование... OKТрек  9     Имя файла D:\Documents and Settings\user\Рабочий стол\«»—0–\09 Illaria Кам'яна Гора.wav     Длина предзазора  0:00:02.00     Пиковый уровень 100.0 %     Скорость извлечения 7.5 X     Качество трека 100.0 %     CRC копии 0BBC4133     Копирование... OKТрек 10     Имя файла D:\Documents and Settings\user\Рабочий стол\«»—0–\10 Illaria Ой, Спи Дитя.wav     Длина предзазора  0:00:02.00     Пиковый уровень 54.0 %     Скорость извлечения 6.3 X     Качество трека 100.0 %     CRC копии BE2B8D5B     Копирование... OKТрек 11     Имя файла D:\Documents and Settings\user\Рабочий стол\«»—0–\11 Illaria Ой, Ходить Сон Коло Вікон.wav     Пиковый уровень 98.9 %     Скорость извлечения 7.9 X     Качество трека 100.0 %     CRC копии 636754EE     Копирование... OKТрек 12     Имя файла D:\Documents and Settings\user\Рабочий стол\«»—0–\12 Illaria Ой, Сивая Тая Зозуленька.wav     Длина предзазора  0:00:02.00     Пиковый уровень 100.0 %     Скорость извлечения 8.4 X     Качество трека 100.0 %     CRC копии 43C74940     Копирование... OKТрек 13     Имя файла D:\Documents and Settings\user\Рабочий стол\«»—0–\13 Illaria Божа Мати.wav     Длина предзазора  0:00:02.00     Пиковый уровень 100.0 %     Скорость извлечения 7.6 X     Качество трека 99.9 %     CRC копии D9986F2E     Копирование... OKОшибок не произошлоКонец отчёта==== Контрольная сумма отчёта 29C384805675CAA00E336D8D2840020D132D8CE02C960D9A28B6E3F3655DCF3F ====

Содержание индексной карты (.CUE)

REM DATE 2013REM DISCID B70A0B0DREM COMMENT "ExactAudioCopy v1.0b3"PERFORMER "Illaria"TITLE "13 Mісяців"FILE "01 Ой, Ти Жайворонку.wav" WAVE  TRACK 01 AUDIO    TITLE "Ой, Ти Жайворонку "    PERFORMER "Illaria"    INDEX 01 00:00:00FILE "02 Вербовая Дощечка.wav" WAVE  TRACK 02 AUDIO    TITLE "Вербовая Дощечка"    PERFORMER "Illaria"    INDEX 01 00:00:00  TRACK 03 AUDIO    TITLE "Проведу Свою Русалочку"    PERFORMER "Illaria"    INDEX 00 03:20:10FILE "03 Проведу Свою Русалочку.wav" WAVE    INDEX 01 00:00:00FILE "04 Й Уберемо Куста.wav" WAVE  TRACK 04 AUDIO    TITLE "Й Уберемо Куста "    PERFORMER "Illaria"    INDEX 01 00:00:00  TRACK 05 AUDIO    TITLE "На Івана, На Купайла"    PERFORMER "Illaria"    INDEX 00 03:16:45FILE "05 На Івана, На Купайла.wav" WAVE    INDEX 01 00:00:00  TRACK 06 AUDIO    TITLE "Ой, Верше Мій, Верше"    PERFORMER "Illaria"    INDEX 00 03:04:26FILE "06 Ой, Верше Мій, Верше.wav" WAVE    INDEX 01 00:00:00  TRACK 07 AUDIO    TITLE "Ой, Літає Соколоньку"    PERFORMER "Illaria"    INDEX 00 02:30:10FILE "07 Ой, Літає Соколоньку.wav" WAVE    INDEX 01 00:00:00  TRACK 08 AUDIO    TITLE "Цвіте Терен"    PERFORMER "Illaria"    INDEX 00 03:18:00FILE "08 Цвіте Терен.wav" WAVE    INDEX 01 00:00:00  TRACK 09 AUDIO    TITLE "Кам'яна Гора "    PERFORMER "Illaria"    INDEX 00 03:47:63FILE "09 Кам'яна Гора.wav" WAVE    INDEX 01 00:00:00  TRACK 10 AUDIO    TITLE "Ой, Спи Дитя"    PERFORMER "Illaria"    INDEX 00 03:43:61FILE "10 Ой, Спи Дитя.wav" WAVE    INDEX 01 00:00:00FILE "11 Ой, Ходить Сон Коло Вікон.wav" WAVE  TRACK 11 AUDIO    TITLE "Ой, Ходить Сон Коло Вікон"    PERFORMER "Illaria"    INDEX 01 00:00:00  TRACK 12 AUDIO    TITLE "Ой, Сивая Тая Зозуленька"    PERFORMER "Illaria"    INDEX 00 03:36:04FILE "12 Ой, Сивая Тая Зозуленька.wav" WAVE    INDEX 01 00:00:00  TRACK 13 AUDIO    TITLE "Божа Мати"    PERFORMER "Illaria"    INDEX 00 04:32:57FILE "13 Божа Мати.wav" WAVE    INDEX 01 00:00:00

Лог проверки качества

CUE Corrector v. 8.3.4 / b. 894 (Dec. 12, 2018)————————————————————————————————————————————————————————————————————————--- / 2013 - 13 MісяцівFolder: Illaria - «13 Mісяців» (2013)[FLAC]Audio files:    01 Ой, Ти Жайворонку.flac [03:17.880; FLAC • 760 kbps • 16 bit \ 44100 Hz • stereo; 17.94 MB (18 816 149 B)]    02 Вербовая Дощечка.flac [03:22.133; FLAC • 935 kbps • 16 bit \ 44100 Hz • stereo; 22.55 MB (23 640 410 B)]    03 Проведу Свою Русалочку.flac [02:29.040; FLAC • 766 kbps • 16 bit \ 44100 Hz • stereo; 13.62 MB (14 283 701 B)]    04 Й Уберемо Куста.flac [03:18.600; FLAC • 926 kbps • 16 bit \ 44100 Hz • stereo; 21.94 MB (23 009 141 B)]    05 На Івана, На Купайла.flac [03:06.347; FLAC • 819 kbps • 16 bit \ 44100 Hz • stereo; 18.20 MB (19 084 778 B)]    06 Ой, Верше Мій, Верше.flac [02:32.133; FLAC • 712 kbps • 16 bit \ 44100 Hz • stereo; 12.93 MB (13 558 086 B)]    07 Ой, Літає Соколоньку.flac [03:20.000; FLAC • 911 kbps • 16 bit \ 44100 Hz • stereo; 21.73 MB (22 780 578 B)]    08 Цвіте Терен.flac [03:49.840; FLAC • 892 kbps • 16 bit \ 44100 Hz • stereo; 24.46 MB (25 649 545 B)]    09 Кам'яна Гора.flac [03:45.813; FLAC • 960 kbps • 16 bit \ 44100 Hz • stereo; 25.87 MB (27 124 302 B)]    10 Ой, Спи Дитя.flac [01:25.893; FLAC • 637 kbps • 16 bit \ 44100 Hz • stereo; 6.53 MB (6 848 570 B)]    11 Ой, Ходить Сон Коло Вікон.flac [03:38.053; FLAC • 771 kbps • 16 bit \ 44100 Hz • stereo; 20.05 MB (21 026 484 B)]    12 Ой, Сивая Тая Зозуленька.flac [04:34.760; FLAC • 953 kbps • 16 bit \ 44100 Hz • stereo; 31.24 MB (32 760 309 B)]    13 Божа Мати.flac [04:10.667; FLAC • 901 kbps • 16 bit \ 44100 Hz • stereo; 26.93 MB (28 237 265 B)]Accuracy: -m0File 01 Ой, Ти Жайворонку         - 100% CDDA [03:17.880]File 02 Вербовая Дощечка          - 100% CDDA [03:22.133]File 03 Проведу Свою Русалочку    - 100% CDDA [02:29.040]File 04 Й Уберемо Куста           -  99% CDDA [03:18.600]File 05 На Івана, На Купайла      -  54% CDDA [03:06.347]File 06 Ой, Верше Мій, Верше      - 100% CDDA [02:32.133]File 07 Ой, Літає Соколоньку      - 100% CDDA [03:20.000]File 08 Цвіте Терен               - 100% CDDA [03:49.840]File 09 Кам'яна Гора              - 100% CDDA [03:45.813]File 10 Ой, Спи Дитя              - 100% CDDA [01:25.893]File 11 Ой, Ходить Сон Коло Вікон - 100% CDDA [03:38.053]File 12 Ой, Сивая Тая Зозуленька  - 100% CDDA [04:34.760]File 13 Божа Мати                 - 100% CDDA [04:10.667]————— Summary: —————These tracks looks like CDDA with probability 100%.————————————————————————————————————————————————————————————————————————ANALYZER:    auCDtect: CD records authenticity detector, version 0.8.2    Copyright (c) 2004 Oleg Berngardt. All rights reserved.    Copyright (c) 2004 Alexander Djourik. All rights reserved.Time elapsed: 1 m 31 sLog created at December 14, 2018 11:46:14=== 02E7AA947BDA602FFD062DF7EDE5082D69FD8B60179D9B661F4AF6D3A0FE2D5E ===

Digital cover

Исполнители

Ілларія – вокал (1–2)
Таня Ша – клавішні (1-3, 7, 11–12, 13)
Геннадій Сидоров – клавішні, бас-гітара (1–3, 12)
Роман Солук – телинка, кавал, сопілки, саксонет (4, 11)
Андрій Войчук – цимбали (4, 9)
Олександр Леонов – гітара (4, 8–9, 11)
Євген Положишніков – гітара (5)
Антон Бурика – труба, флюгельгорн (7, 9)
Ігор Одарюк – бас-гітара (8–9)
Анатолій Шмаргун – барабани, перкусія (8-9)
Олексій Сагітов – тромбон (9)
Віталій Делєст'янов – клавішні (9)
Юлія Гарбар – скрипка (11, 13)
Віктор Чернявський – альт (11)
Дмитро Глущенко – віолончель (11)
Антон Солов'єнко – флейта (13)

Об альбоме

"Нова платівка ILLARIA – це своєрідний календар українських музичних традицій. Сюди увійшли кавер-версії відомих народних пісень, в основу яких покладено архівні автентичні записи. Для створення нового альбому ILLaria свідомо звернулась переважно до обрядового фольклору, який, на її думку, найбільш яскраво виявляє душу і світогляд українців. Треки звучать відповідно до народного календаря: від веснянок-гаївок – і до колядок та щедрівок. Не обійшлось і без дитячих колискових та ліричних пісень..."
Сама ILLaria про новий альбом говорить: "Я підібрала і виконала на свій лад українські пісні, які мене проймають до кінчиків пальців. Кожна з цих пісень супроводжувала людину протягом року як обрядова складова. Виявляється, обрядовий рік у наших пращурів починався з весни і тривав, на відміну від календарного, не 12, а 13 місяців. ..Я намагалася показати, що традиційний український фольклор може звучати несподівано сучасно і різноманітно, а також бути зрозумілим і близьким не тільки для українців. Для мене українська автентика – це, в першу чергу, містична енергія землі і цілковита гармонія з космосом. Це дуже сильна музика!" (з матеріалів офіційного прес-релізу)

To download the content you need:
1. Download and install torrent client [for Windows] or for mobile system
2. Click on [Download]
Attention.
If the test YOU are NOT a ROBOT - does not work, then You are using an outdated browser.
Install the current browser and click on [Download]
Security: torrent client is allowed by Kaspersky.

[asmlocator.ru].t596564.torrent 
Torrent: Registered [ 2018-12-14 12:30 ] · F2F67F996C26FADE0E506ED25689929B71F2B103

Download .torrent

Download

12 KB

Status: checked
Completed: 0 times
Size: 264 MB
terms.php
[Profile] [PM]
Display posts:    
Reply to topic

Current time is: 16-Jun 23:57

All times are UTC ± 0



You cannot post new topics in this forum
You cannot reply to topics in this forum
You cannot edit your posts in this forum
You cannot delete your posts in this forum
You cannot vote in polls in this forum
You cannot attach files in this forum
You can download files in this forum