(Electronic, Modern Classical, Experimental) [CD] Anne Dudley - Anne Dudley plays the Art of Noise (Japan) - 2017, FLAC (image+.cue), lossless

Reply to topic
DL-List and Torrent activity
Size:  322 MB   |    Registered:  6 months 12 days   |    Completed:  2 times

Seeder not seen: 1 hour 11 minutes

 
   
 
 
Author Message

star21 ®

Gender: Female

Longevity: 3 years 7 months

Posts: 552115

Location: Екатеринбург

Post 14-Dec-2018 08:20

[Quote]

Anne Dudley plays the Art of Noise Жанр: Electronic, Modern Classical, Experimental
Носитель: CD
Страна-производитель диска (релиза): Japan
Год издания: 2017
Издатель (лейбл): United Music and Arts
Номер по каталогу: UMA-1092
Страна исполнителя (группы): UK
Аудиокодек: FLAC (*.flac)
Тип рипа: image+.cue
Битрейт аудио: lossless
Продолжительность: 61'32
Источник (релизер): свой диск
Наличие сканов в содержимом раздачи: да
Треклист:
01. Ten fingers of love 5'07
02. Close (to the edit) diverted with World's famous 4'15
03. A time for fear (who's afraid) 2'24
04. Paranoimia 3'23
05. Beat box 4'42
06. Robinson Crusoe 4'06
07. Legs 3'38
08. On being blue 4'17
09. Instrument of darkness 3'58
10. Moments in love 5'48
11. Il pleure (at the turn of the century) 4'01
12. Backbeat 2'34
13. Opus 5 point 5 2'57
14. Camilla 4'32
15. Finale 2'56
16. Video killed the radio star* 2'54
___________________
* bonus track

Лог создания рипа

Exact Audio Copy V1.0 beta 3 from 29. August 2011Отчёт EAC об извлечении, выполненном 9. июля 2017, 19:19Anne Dudley / Plays the Art of NoiseДисковод: Optiarc DVD RW AD-7261S   Adapter: 0  ID: 0Режим чтения                 : ДостоверностьИспользование точного потока : ДаОтключение кэша аудио        : ДаИспользование указателей C2  : НетКоррекция смещения при чтении                     : 48Способность читать области Lead-in и Lead-out     : НетЗаполнение пропущенных сэмплов тишиной            : ДаУдаление блоков с тишиной в начале и конце        : НетПри вычислениях CRC использовались нулевые сэмплы : ДаИнтерфейс                                         : Встроенный Win32-интерфейс для Win NT/2000Выходной формат          : Пользовательский кодировщикВыбранный битрейт        : 768 kBit/sКачество                 : ВысокийДобавление ID3-тега      : НетУтилита сжатия           : C:\Program Files\Exact Audio Copy\FLAC\FLAC.EXEДополнительные параметры : -V -8 -T "Date=%year%" -T "Genre=%genre%" %source%TOC извлечённого CD     Трек |   Старт  | Длительность | Начальный сектор | Конечный сектор    ---------------------------------------------------------------------       1  |  0:00.00 |    5:07.22   |           0      |      23046       2  |  5:07.22 |    4:14.54   |       23047      |      42150       3  |  9:22.01 |    2:24.28   |       42151      |      52978       4  | 11:46.29 |    3:23.19   |       52979      |      68222       5  | 15:09.48 |    4:41.51   |       68223      |      89348       6  | 19:51.24 |    4:05.38   |       89349      |     107761       7  | 23:56.62 |    3:37.44   |      107762      |     124080       8  | 27:34.31 |    4:17.09   |      124081      |     143364       9  | 31:51.40 |    3:57.68   |      143365      |     161207      10  | 35:49.33 |    5:48.20   |      161208      |     187327      11  | 41:37.53 |    4:01.32   |      187328      |     205434      12  | 45:39.10 |    2:33.38   |      205435      |     216947      13  | 48:12.48 |    2:57.12   |      216948      |     230234      14  | 51:09.60 |    4:31.54   |      230235      |     250613      15  | 55:41.39 |    2:56.26   |      250614      |     263839      16  | 58:37.65 |    2:53.53   |      263840      |     276867Характеристики диапазона извлечения и сообщения об ошибкахВыбранный диапазон     Имя файла F:\My musica\Anne Dudley plays the Art of Noise 2017 (Japan)\Anne Dudley Plays the Art of Noise.wav     Пиковый уровень 97.9 %     Скорость извлечения 4.2 X     Качество диапазона 100.0 %     CRC теста CF5AAF9B     CRC копии CF5AAF9B     Копирование... OKОшибок не произошлоAccurateRip: сводкаТрек  1  отсутствует в базе данныхТрек  2  отсутствует в базе данныхТрек  3  отсутствует в базе данныхТрек  4  отсутствует в базе данныхТрек  5  отсутствует в базе данныхТрек  6  отсутствует в базе данныхТрек  7  отсутствует в базе данныхТрек  8  отсутствует в базе данныхТрек  9  отсутствует в базе данныхТрек 10  отсутствует в базе данныхТрек 11  отсутствует в базе данныхТрек 12  отсутствует в базе данныхТрек 13  отсутствует в базе данныхТрек 14  отсутствует в базе данныхТрек 15  отсутствует в базе данныхТрек 16  отсутствует в базе данныхНи одного трека нет в базе AccurateRipКонец отчёта---- CUETools DB Plugin V2.1.3[CTDB TOCID: OqioEXiLP4Yz9xy3obi9F39Yqbk-] found, Submit result: OqioEXiLP4Yz9xy3obi9F39Yqbk- has been confirmed[df8b7fe1] (4/4) Accurately ripped==== Контрольная сумма отчёта 59D1B0DF6C1C98EAEEF994EB5F3568A60959C5E5E2861F1B3B25339D1E50CC2D ====

Содержание индексной карты (.CUE)

REM DATE 2017REM DISCID E50E6B10REM COMMENT "ExactAudioCopy v1.0b3"PERFORMER "Anne Dudley"TITLE "Plays the Art of Noise"FILE "Anne Dudley Plays the Art of Noise.flac" WAVE  TRACK 01 AUDIO    TITLE "Ten Fingers of Love"    PERFORMER "Anne Dudley"    ISRC JPJ931700043    INDEX 01 00:00:00  TRACK 02 AUDIO    TITLE "Close (To The Edit) diverted with World's Famous"    PERFORMER "Anne Dudley"    ISRC JPJ931700044    INDEX 01 05:07:22  TRACK 03 AUDIO    TITLE "A Time for Fear (Who's Afraid)"    PERFORMER "Anne Dudley"    ISRC JPJ931700053    INDEX 01 09:22:01  TRACK 04 AUDIO    TITLE "Parano.mia"    PERFORMER "Anne Dudley"    ISRC JPJ931700046    INDEX 01 11:46:29  TRACK 05 AUDIO    TITLE "Beat Box"    PERFORMER "Anne Dudley"    ISRC JPJ931700047    INDEX 01 15:09:48  TRACK 06 AUDIO    TITLE "Robinson Crusoe"    PERFORMER "Anne Dudley"    ISRC JPJ931700048    INDEX 01 19:51:24  TRACK 07 AUDIO    TITLE "Legs"    PERFORMER "Anne Dudley"    ISRC JPJ931700049    INDEX 01 23:56:62  TRACK 08 AUDIO    TITLE "On Being Blue"    PERFORMER "Anne Dudley"    ISRC JPJ931700050    INDEX 01 27:34:31  TRACK 09 AUDIO    TITLE "Instruments of Darkness"    PERFORMER "Anne Dudley"    ISRC JPJ931700051    INDEX 01 31:51:40  TRACK 10 AUDIO    TITLE "Moments in Love"    PERFORMER "Anne Dudley"    ISRC JPJ931700052    INDEX 01 35:49:33  TRACK 11 AUDIO    TITLE "Il Pleure (At the Turn of the Century)"    PERFORMER "Anne Dudley"    ISRC JPJ931700045    INDEX 01 41:37:53  TRACK 12 AUDIO    TITLE "Backbeat"    PERFORMER "Anne Dudley"    ISRC JPJ931700054    INDEX 01 45:39:10  TRACK 13 AUDIO    TITLE "Opus 5 Point 5"    PERFORMER "Anne Dudley"    ISRC JPJ931700055    INDEX 01 48:12:48  TRACK 14 AUDIO    TITLE "Camilla"    PERFORMER "Anne Dudley"    ISRC JPJ931700056    INDEX 01 51:09:60  TRACK 15 AUDIO    TITLE "Finale"    PERFORMER "Anne Dudley"    ISRC JPJ931700057    INDEX 01 55:41:39  TRACK 16 AUDIO    TITLE "Video Killed the Radio Star"    PERFORMER "Anne Dudley"    ISRC JPJ931700058    INDEX 01 58:37:65

Об альбоме (сборнике)

Энн Дадли играет на фортепиано

To download the content you need:
1. Download and install torrent client [for Windows] or for mobile system
2. Click on [Download]
Attention.
If the test YOU are NOT a ROBOT - does not work, then You are using an outdated browser.
Install the current browser and click on [Download]
Security: torrent client is allowed by Kaspersky.

[asmlocator.ru].t596534.torrent 
Torrent: Registered [ 2018-12-14 08:20 ] · CD294A29DC34317E5DDB1DD08504D1D0EEB383F8

Download .torrent

Download

14 KB

Status: checked
Completed: 2 times
Size: 322 MB
terms.php
[Profile] [PM]
Display posts:    
Reply to topic

Current time is: 27-Jun 07:06

All times are UTC ± 0



You cannot post new topics in this forum
You cannot reply to topics in this forum
You cannot edit your posts in this forum
You cannot delete your posts in this forum
You cannot vote in polls in this forum
You cannot attach files in this forum
You can download files in this forum