(Electronic, Rock, Leftfield, Electro, Experimental) [CD] Audioafterbirth ‎– Commbine - 1992 FLAC (image+.cue), lossless

Reply to topic
DL-List and Torrent activity
Size:  234 MB   |    Registered:  6 months 2 days   |    Completed:  0 times

Seeder not seen: Never

 
   
 
 
Author Message

star21 ®

Gender: Female

Longevity: 3 years 7 months

Posts: 552147

Location: Екатеринбург

Post 14-Dec-2018 08:20

[Quote]

Audioafterbirth ‎– Commbine Жанр: Electronic, Rock, Leftfield, Electro, Experimental
Носитель: CD
Страна-производитель диска (релиза): US
Год издания: 1992
Издатель (лейбл): Emigre
Номер по каталогу: ECD010
Страна исполнителя (группы): US
Аудиокодек: FLAC
Тип рипа: image+.cue
Битрейт аудио: lossless
Продолжительность: 00:38:54
Источник (релизер): Мой CD
Наличие сканов в содержимом раздачи: даТреклист:01. Science Or Heaven 4:10
02. Put It In A Box 4:56
03. Wet Hand Of Truth 4:45
04. Waiting With Baudrillard 2:12
05. The Picture Upright 2:44
06. Under B-52's 3:15
07. Telepresence 4:48
08. Biohemispheric 2:37
09. Facing West 4:33
10. Tongues 4:53Не забываем говорить спасибо и оставаться на раздаче!

Лог создания рипа

Exact Audio Copy V1.3 from 2. September 2016Отчёт EAC об извлечении, выполненном 11. августа 2018, 20:31Audioafterbirth / CommbineДисковод: SONY    CD-RW  CRX230ED   Adapter: 1  ID: 1Режим чтения                 : ДостоверностьИспользование точного потока : ДаОтключение кэша аудио        : ДаИспользование указателей C2  : НетКоррекция смещения при чтении                     : 6Способность читать области Lead-in и Lead-out     : НетЗаполнение пропущенных сэмплов тишиной            : ДаУдаление блоков с тишиной в начале и конце        : НетПри вычислениях CRC использовались нулевые сэмплы : ДаИнтерфейс                                         : Встроенный Win32-интерфейс для Win NT/2000Выходной формат : Внутренние WAV-операцииФормат сэмплов  : 44.100 Гц; 16 бит; стереоTOC извлечённого CD     Трек |   Старт  | Длительность | Начальный сектор | Конечный сектор    ---------------------------------------------------------------------       1  |  0:00.00 |    4:10.00   |           0      |      18749       2  |  4:10.00 |    4:56.00   |       18750      |      40949       3  |  9:06.00 |    4:45.00   |       40950      |      62324       4  | 13:51.00 |    2:12.00   |       62325      |      72224       5  | 16:03.00 |    2:44.00   |       72225      |      84524       6  | 18:47.00 |    3:15.00   |       84525      |      99149       7  | 22:02.00 |    4:48.37   |       99150      |     120786       8  | 26:50.37 |    2:37.00   |      120787      |     132561       9  | 29:27.37 |    4:33.38   |      132562      |     153074      10  | 34:01.00 |    4:53.70   |      153075      |     175119Характеристики диапазона извлечения и сообщения об ошибкахВыбранный диапазон     Имя файла C:\Users\Serg22\Documents\Новая папка (2)\Audioafterbirth - Commbine.wav     Пиковый уровень 100.0 %     Скорость извлечения 7.6 X     Качество диапазона 99.9 %     CRC теста 2F76CDBB     CRC копии 2F76CDBB     Копирование... OKОшибок не произошлоAccurateRip: сводкаТрек  1  : извлечено точно (доверие 2)  [14A471B8]  (AR v2)Трек  2  : извлечено точно (доверие 2)  [5D260C02]  (AR v2)Трек  3  : извлечено точно (доверие 2)  [56074F97]  (AR v2)Трек  4  : извлечено точно (доверие 2)  [7D1187BE]  (AR v2)Трек  5  : извлечено точно (доверие 2)  [752C66B0]  (AR v2)Трек  6  : извлечено точно (доверие 2)  [A924AD60]  (AR v2)Трек  7  : извлечено точно (доверие 2)  [21C4936A]  (AR v2)Трек  8  : извлечено точно (доверие 2)  [2ACC8179]  (AR v2)Трек  9  : извлечено точно (доверие 2)  [056301EE]  (AR v2)Трек 10  : извлечено точно (доверие 2)  [E8016D6A]  (AR v2)Все треки извлечены точноКонец отчёта------------------------------------------------------------Exact Audio Copy V1.3 from 2. September 2016Отчёт EAC об извлечении, выполненном 11. августа 2018, 20:31Audioafterbirth / CommbineДисковод: SONY    CD-RW  CRX230ED   Adapter: 1  ID: 1Режим чтения                 : ДостоверностьИспользование точного потока : ДаОтключение кэша аудио        : ДаИспользование указателей C2  : НетКоррекция смещения при чтении                     : 6Способность читать области Lead-in и Lead-out     : НетЗаполнение пропущенных сэмплов тишиной            : ДаУдаление блоков с тишиной в начале и конце        : НетПри вычислениях CRC использовались нулевые сэмплы : ДаИнтерфейс                                         : Встроенный Win32-интерфейс для Win NT/2000Выходной формат : Внутренние WAV-операцииФормат сэмплов  : 44.100 Гц; 16 бит; стереоTOC извлечённого CD     Трек |   Старт  | Длительность | Начальный сектор | Конечный сектор    ---------------------------------------------------------------------       1  |  0:00.00 |    4:10.00   |           0      |      18749       2  |  4:10.00 |    4:56.00   |       18750      |      40949       3  |  9:06.00 |    4:45.00   |       40950      |      62324       4  | 13:51.00 |    2:12.00   |       62325      |      72224       5  | 16:03.00 |    2:44.00   |       72225      |      84524       6  | 18:47.00 |    3:15.00   |       84525      |      99149       7  | 22:02.00 |    4:48.37   |       99150      |     120786       8  | 26:50.37 |    2:37.00   |      120787      |     132561       9  | 29:27.37 |    4:33.38   |      132562      |     153074      10  | 34:01.00 |    4:53.70   |      153075      |     175119Характеристики диапазона извлечения и сообщения об ошибкахВыбранный диапазон     Имя файла C:\Users\Serg22\Documents\Новая папка (2)\Audioafterbirth - Commbine.wav     Пиковый уровень 100.0 %     Скорость извлечения 7.6 X     Качество диапазона 99.9 %     CRC теста 2F76CDBB     CRC копии 2F76CDBB     Копирование... OKОшибок не произошлоAccurateRip: сводкаТрек  1  : извлечено точно (доверие 2)  [14A471B8]  (AR v2)Трек  2  : извлечено точно (доверие 2)  [5D260C02]  (AR v2)Трек  3  : извлечено точно (доверие 2)  [56074F97]  (AR v2)Трек  4  : извлечено точно (доверие 2)  [7D1187BE]  (AR v2)Трек  5  : извлечено точно (доверие 2)  [752C66B0]  (AR v2)Трек  6  : извлечено точно (доверие 2)  [A924AD60]  (AR v2)Трек  7  : извлечено точно (доверие 2)  [21C4936A]  (AR v2)Трек  8  : извлечено точно (доверие 2)  [2ACC8179]  (AR v2)Трек  9  : извлечено точно (доверие 2)  [056301EE]  (AR v2)Трек 10  : извлечено точно (доверие 2)  [E8016D6A]  (AR v2)Все треки извлечены точноКонец отчёта

Содержание индексной карты

REM GENRE RockREM DATE 1992REM DISCID 7F091E0AREM COMMENT "ExactAudioCopy v1.3"PERFORMER "Audioafterbirth"TITLE "Commbine"FILE "Audioafterbirth - Commbine.flac" WAVE  TRACK 01 AUDIO    TITLE "Science or Heaven"    PERFORMER "Audioafterbirth"    INDEX 01 00:00:00  TRACK 02 AUDIO    TITLE "Put It In A Box"    PERFORMER "Audioafterbirth"    INDEX 01 04:10:00  TRACK 03 AUDIO    TITLE "Wet Hand of Truth"    PERFORMER "Audioafterbirth"    INDEX 00 09:05:57    INDEX 01 09:06:00  TRACK 04 AUDIO    TITLE "Waiting With Baudrillard"    PERFORMER "Audioafterbirth"    INDEX 00 13:50:37    INDEX 01 13:51:00  TRACK 05 AUDIO    TITLE "The Picture Upright"    PERFORMER "Audioafterbirth"    INDEX 01 16:03:00  TRACK 06 AUDIO    TITLE "Under B-52's"    PERFORMER "Audioafterbirth"    INDEX 01 18:47:00  TRACK 07 AUDIO    TITLE "Telepresence"    PERFORMER "Audioafterbirth"    INDEX 01 22:02:00  TRACK 08 AUDIO    TITLE "Biohemispheric"    PERFORMER "Audioafterbirth"    INDEX 01 26:50:37  TRACK 09 AUDIO    TITLE "Facing West"    PERFORMER "Audioafterbirth"    INDEX 01 29:27:37  TRACK 10 AUDIO    TITLE "Tongues"    PERFORMER "Audioafterbirth"    INDEX 01 34:01:00

Об альбоме

Credits
Design, Mixed By, Photography By, Producer, Written-By – P. Scott Makela
Mixed By – Keith Lewis
Photography By – Hillary Bullock
Producer – Keith Lewis (tracks: 1, 7 to 10)
Written-By – Keith Lewis (tracks: 7 to 10), Miz Haycock (tracks: 2, 9, 10)

To download the content you need:
1. Download and install torrent client [for Windows] or for mobile system
2. Click on [Download]
Attention.
If the test YOU are NOT a ROBOT - does not work, then You are using an outdated browser.
Install the current browser and click on [Download]
Security: torrent client is allowed by Kaspersky.

[asmlocator.ru].t596533.torrent 
Torrent: Registered [ 2018-12-14 08:20 ] · B52204905A6FA5813546FF861F37A07B4CB0F3AC

Download .torrent

Download

19 KB

Status: checked
Completed: 0 times
Size: 234 MB
terms.php
[Profile] [PM]
Display posts:    
Reply to topic

Current time is: 16-Jun 23:57

All times are UTC ± 0



You cannot post new topics in this forum
You cannot reply to topics in this forum
You cannot edit your posts in this forum
You cannot delete your posts in this forum
You cannot vote in polls in this forum
You cannot attach files in this forum
You can download files in this forum