(Trance) [CD] Global Experience - Global Experience - 2015, FLAC (tracks+.cue), lossless

Reply to topic
DL-List and Torrent activity
Size:  594 MB   |    Registered:  6 months 2 days   |    Completed:  0 times

Seeder not seen: Never

 
   
 
 
Author Message

star21 ®

Gender: Female

Longevity: 3 years 7 months

Posts: 552147

Location: Екатеринбург

Post 14-Dec-2018 08:20

[Quote]

Global Experience / Global Experience Жанр: Trance
Носитель: CD
Страна-производитель диска (релиза): Netherlands
Год издания: 2015
Издатель (лейбл): Black Hole Recordings
Номер по каталогу: CD 126
Страна исполнителя (группы): Netherlands
Аудиокодек: FLAC (*.flac)
Тип рипа: tracks+.cue
Битрейт аудио: lossless
Продолжительность: 01:18:35
Источник (релизер): own rip
Наличие сканов в содержимом раздачи: да

Треклист

01. Global Experience - Human Survivors
02. Global Experience - Merina People
03. Global Experience - San Salvador
04. Global Experience - Exile
05. Global Experience - Dakar
06. Global Experience - Turtle Bay
07. Global Experience - Madras
08. Global Experience - Chill Pill
09. Global Experience - Koengen
10. Global Experience - Tenessee
11. Global Experience - Malaysia
12. Global Experience - Zanzibar
13. Global Experience - New Life
14. Roger Shah, Jes & Brian Laruso - Higher Than The Sun
15. Global Experience - Santa Monica
16. Global Experience - Fox & Koi [Roger Shah & Brian Laruso Original Mix]

Лог создания рипа

Exact Audio Copy V1.3 from 2. September 2016Отчёт EAC об извлечении, выполненном 15. июля 2018, 19:47Global Experience / Global ExperienceДисковод: ASUS    DRW-24D5MT   Adapter: 1  ID: 1Режим чтения                 : ДостоверностьИспользование точного потока : ДаОтключение кэша аудио        : ДаИспользование указателей C2  : НетКоррекция смещения при чтении                     : 6Способность читать области Lead-in и Lead-out     : НетЗаполнение пропущенных сэмплов тишиной            : ДаУдаление блоков с тишиной в начале и конце        : НетПри вычислениях CRC использовались нулевые сэмплы : ДаИнтерфейс                                         : Встроенный Win32-интерфейс для Win NT/2000Обработка зазоров                                 : Добавлено к предыдущему трекуВыходной формат          : Пользовательский кодировщикВыбранный битрейт        : 896 kBit/sКачество                 : ВысокийДобавление ID3-тега      : НетУтилита сжатия           : C:\Program Files (x86)\Exact Audio Copy\flac-1.3.1-win\win64\flac.exeДополнительные параметры : -8 -V -T "ARTIST=%artist%" -T "TITLE=%title%" -T "ALBUM=%albumtitle%" -T "DATE=%year%" -T "TRACKNUMBER=%tracknr%/%numtracks%" -T "GENRE=%genre%" -T "COMMENT=%comment%" %source% -o %dest%TOC извлечённого CD     Трек |   Старт  | Длительность | Начальный сектор | Конечный сектор    ---------------------------------------------------------------------       1  |  0:00.00 |    6:25.69   |           0      |      28943       2  |  6:25.69 |    4:38.30   |       28944      |      49823       3  | 11:04.24 |    5:22.42   |       49824      |      74015       4  | 16:26.66 |    4:40.24   |       74016      |      95039       5  | 21:07.15 |    3:45.00   |       95040      |     111914       6  | 24:52.15 |    5:14.74   |      111915      |     135538       7  | 30:07.14 |    4:45.00   |      135539      |     156913       8  | 34:52.14 |    5:31.64   |      156914      |     181802       9  | 40:24.03 |    3:15.00   |      181803      |     196427      10  | 43:39.03 |    4:01.64   |      196428      |     214566      11  | 47:40.67 |    6:45.00   |      214567      |     244941      12  | 54:25.67 |    6:59.74   |      244942      |     276440      13  | 61:25.66 |    3:01.65   |      276441      |     290080      14  | 64:27.56 |    6:44.74   |      290081      |     320454      15  | 71:12.55 |    4:20.47   |      320455      |     340001      16  | 75:33.27 |    3:01.73   |      340002      |     353649Трек  1     Имя файла F:\Lossless\_DJ Stakan\Global Experience\2015 - Global Experience\01 - Global Experience - Human Survivors.wav     Длина предзазора  0:00:02.00     Пиковый уровень 100.0 %     Скорость извлечения 5.2 X     Качество трека 100.0 %     CRC теста 42118703     CRC копии 42118703     Точное извлечение (достоверность 1)  [14BEC6A4]  (AR v2)     Копирование... OKТрек  2     Имя файла F:\Lossless\_DJ Stakan\Global Experience\2015 - Global Experience\02 - Global Experience - Merina People.wav     Пиковый уровень 100.0 %     Скорость извлечения 5.6 X     Качество трека 100.0 %     CRC теста 24DF9ABA     CRC копии 24DF9ABA     Точное извлечение (достоверность 1)  [3724BFD4]  (AR v2)     Копирование... OKТрек  3     Имя файла F:\Lossless\_DJ Stakan\Global Experience\2015 - Global Experience\03 - Global Experience - San Salvador.wav     Пиковый уровень 100.0 %     Скорость извлечения 6.1 X     Качество трека 100.0 %     CRC теста E25DCD86     CRC копии E25DCD86     Точное извлечение (достоверность 1)  [9B274B47]  (AR v2)     Копирование... OKТрек  4     Имя файла F:\Lossless\_DJ Stakan\Global Experience\2015 - Global Experience\04 - Global Experience - Exile.wav     Пиковый уровень 100.0 %     Скорость извлечения 6.4 X     Качество трека 100.0 %     CRC теста A33357A5     CRC копии A33357A5     Точное извлечение (достоверность 1)  [F5D3E429]  (AR v2)     Копирование... OKТрек  5     Имя файла F:\Lossless\_DJ Stakan\Global Experience\2015 - Global Experience\05 - Global Experience - Dakar.wav     Пиковый уровень 100.0 %     Скорость извлечения 6.6 X     Качество трека 100.0 %     CRC теста 4BF49DF0     CRC копии 4BF49DF0     Точное извлечение (достоверность 1)  [CD3A535D]  (AR v2)     Копирование... OKТрек  6     Имя файла F:\Lossless\_DJ Stakan\Global Experience\2015 - Global Experience\06 - Global Experience - Turtle Bay.wav     Пиковый уровень 100.0 %     Скорость извлечения 7.2 X     Качество трека 100.0 %     CRC теста A451FAA7     CRC копии A451FAA7     Точное извлечение (достоверность 1)  [A3ABBA43]  (AR v2)     Копирование... OKТрек  7     Имя файла F:\Lossless\_DJ Stakan\Global Experience\2015 - Global Experience\07 - Global Experience - Madras.wav     Пиковый уровень 100.0 %     Скорость извлечения 7.4 X     Качество трека 100.0 %     CRC теста CAF6EC4C     CRC копии CAF6EC4C     Точное извлечение (достоверность 1)  [5D73037C]  (AR v2)     Копирование... OKТрек  8     Имя файла F:\Lossless\_DJ Stakan\Global Experience\2015 - Global Experience\08 - Global Experience - Chill Pill.wav     Пиковый уровень 100.0 %     Скорость извлечения 7.9 X     Качество трека 100.0 %     CRC теста 64B6768B     CRC копии 64B6768B     Точное извлечение (достоверность 1)  [E4F9EF3E]  (AR v2)     Копирование... OKТрек  9     Имя файла F:\Lossless\_DJ Stakan\Global Experience\2015 - Global Experience\09 - Global Experience - Koengen.wav     Пиковый уровень 100.0 %     Скорость извлечения 7.5 X     Качество трека 100.0 %     CRC теста 6D06FF74     CRC копии 6D06FF74     Точное извлечение (достоверность 1)  [2A29D2FC]  (AR v2)     Копирование... OKТрек 10     Имя файла F:\Lossless\_DJ Stakan\Global Experience\2015 - Global Experience\10 - Global Experience - Tenessee.wav     Пиковый уровень 100.0 %     Скорость извлечения 8.1 X     Качество трека 100.0 %     CRC теста 4FAF7EBC     CRC копии 4FAF7EBC     Точное извлечение (достоверность 1)  [50D633EA]  (AR v2)     Копирование... OKТрек 11     Имя файла F:\Lossless\_DJ Stakan\Global Experience\2015 - Global Experience\11 - Global Experience - Malaysia.wav     Пиковый уровень 100.0 %     Скорость извлечения 8.9 X     Качество трека 100.0 %     CRC теста B2759175     CRC копии B2759175     Точное извлечение (достоверность 1)  [9F1B0819]  (AR v2)     Копирование... OKТрек 12     Имя файла F:\Lossless\_DJ Stakan\Global Experience\2015 - Global Experience\12 - Global Experience - Zanzibar.wav     Пиковый уровень 100.0 %     Скорость извлечения 8.3 X     Качество трека 99.9 %     CRC теста 6EDBFECF     CRC копии 6EDBFECF     Точное извлечение (достоверность 1)  [A975126E]  (AR v2)     Копирование... OKТрек 13     Имя файла F:\Lossless\_DJ Stakan\Global Experience\2015 - Global Experience\13 - Global Experience - New Life.wav     Пиковый уровень 100.0 %     Скорость извлечения 8.5 X     Качество трека 100.0 %     CRC теста EDC54FA3     CRC копии EDC54FA3     Точное извлечение (достоверность 1)  [45277054]  (AR v2)     Копирование... OKТрек 14     Имя файла F:\Lossless\_DJ Stakan\Global Experience\2015 - Global Experience\14 - Roger Shah, Jes & Brian Laruso - Higher Than The Sun.wav     Пиковый уровень 100.0 %     Скорость извлечения 9.2 X     Качество трека 100.0 %     CRC теста 5294527F     CRC копии 5294527F     Точное извлечение (достоверность 1)  [C8BA9EAC]  (AR v2)     Копирование... OKТрек 15     Имя файла F:\Lossless\_DJ Stakan\Global Experience\2015 - Global Experience\15 - Global Experience - Santa Monica.wav     Пиковый уровень 100.0 %     Скорость извлечения 7.8 X     Качество трека 99.9 %     CRC теста FE21D295     CRC копии FE21D295     Точное извлечение (достоверность 1)  [2FF8202A]  (AR v2)     Копирование... OKТрек 16     Имя файла F:\Lossless\_DJ Stakan\Global Experience\2015 - Global Experience\16 - Global Experience - Fox & Koi [Roger Shah & Brian Laruso Original Mix].wav     Пиковый уровень 100.0 %     Скорость извлечения 8.8 X     Качество трека 100.0 %     CRC теста 186E91DC     CRC копии 186E91DC     Точное извлечение (достоверность 1)  [DFD5DAAF]  (AR v2)     Копирование... OKВсе треки извлечены точноОшибок не произошлоКонец отчёта---- CUETools DB Plugin V2.1.6[CTDB TOCID: DoHqwZqDUgOxOx4tnJD8VwGNBnk-] foundSubmit result: DoHqwZqDUgOxOx4tnJD8VwGNBnk- has been confirmedTrack | CTDB Status  1   | (4/4) Accurately ripped  2   | (4/4) Accurately ripped  3   | (4/4) Accurately ripped  4   | (4/4) Accurately ripped  5   | (4/4) Accurately ripped  6   | (4/4) Accurately ripped  7   | (4/4) Accurately ripped  8   | (4/4) Accurately ripped  9   | (4/4) Accurately ripped 10   | (4/4) Accurately ripped 11   | (4/4) Accurately ripped 12   | (4/4) Accurately ripped 13   | (4/4) Accurately ripped 14   | (4/4) Accurately ripped 15   | (4/4) Accurately ripped 16   | (4/4) Accurately ripped==== Контрольная сумма отчёта 05CBED25BE389452875E64A2DD30BC80A663A01EACCE4458474E2D39FDF5E6B1 ====

Содержание индексной карты (.CUE)

REM GENRE TranceREM DATE 2015REM DISCID 16126B10REM COMMENT "ExactAudioCopy v1.3"PERFORMER "Global Experience"TITLE "Global Experience"REM COMPOSER ""FILE "01 - Global Experience - Human Survivors.wav" WAVE  TRACK 01 AUDIO    TITLE "Human Survivors"    PERFORMER "Global Experience"    REM COMPOSER ""    INDEX 01 00:00:00FILE "02 - Global Experience - Merina People.wav" WAVE  TRACK 02 AUDIO    TITLE "Merina People"    PERFORMER "Global Experience"    REM COMPOSER ""    INDEX 01 00:00:00FILE "03 - Global Experience - San Salvador.wav" WAVE  TRACK 03 AUDIO    TITLE "San Salvador"    PERFORMER "Global Experience"    REM COMPOSER ""    INDEX 01 00:00:00FILE "04 - Global Experience - Exile.wav" WAVE  TRACK 04 AUDIO    TITLE "Exile"    PERFORMER "Global Experience"    REM COMPOSER ""    INDEX 01 00:00:00FILE "05 - Global Experience - Dakar.wav" WAVE  TRACK 05 AUDIO    TITLE "Dakar"    PERFORMER "Global Experience"    REM COMPOSER ""    INDEX 01 00:00:00FILE "06 - Global Experience - Turtle Bay.wav" WAVE  TRACK 06 AUDIO    TITLE "Turtle Bay"    PERFORMER "Global Experience"    REM COMPOSER ""    INDEX 01 00:00:00FILE "07 - Global Experience - Madras.wav" WAVE  TRACK 07 AUDIO    TITLE "Madras"    PERFORMER "Global Experience"    REM COMPOSER ""    INDEX 01 00:00:00FILE "08 - Global Experience - Chill Pill.wav" WAVE  TRACK 08 AUDIO    TITLE "Chill Pill"    PERFORMER "Global Experience"    REM COMPOSER ""    INDEX 01 00:00:00FILE "09 - Global Experience - Koengen.wav" WAVE  TRACK 09 AUDIO    TITLE "Koengen"    PERFORMER "Global Experience"    REM COMPOSER ""    INDEX 01 00:00:00FILE "10 - Global Experience - Tenessee.wav" WAVE  TRACK 10 AUDIO    TITLE "Tenessee"    PERFORMER "Global Experience"    REM COMPOSER ""    INDEX 01 00:00:00FILE "11 - Global Experience - Malaysia.wav" WAVE  TRACK 11 AUDIO    TITLE "Malaysia"    PERFORMER "Global Experience"    REM COMPOSER ""    INDEX 01 00:00:00FILE "12 - Global Experience - Zanzibar.wav" WAVE  TRACK 12 AUDIO    TITLE "Zanzibar"    PERFORMER "Global Experience"    REM COMPOSER ""    INDEX 01 00:00:00FILE "13 - Global Experience - New Life.wav" WAVE  TRACK 13 AUDIO    TITLE "New Life"    PERFORMER "Global Experience"    REM COMPOSER ""    INDEX 01 00:00:00FILE "14 - Roger Shah, Jes & Brian Laruso - Higher Than The Sun.wav" WAVE  TRACK 14 AUDIO    TITLE "Higher Than The Sun"    PERFORMER "Roger Shah, Jes & Brian Laruso"    REM COMPOSER ""    INDEX 01 00:00:00FILE "15 - Global Experience - Santa Monica.wav" WAVE  TRACK 15 AUDIO    TITLE "Santa Monica"    PERFORMER "Global Experience"    REM COMPOSER ""    INDEX 01 00:00:00FILE "16 - Global Experience - Fox & Koi [Roger Shah & Brian Laruso Original Mix].wav" WAVE  TRACK 16 AUDIO    TITLE "Fox & Koi [Roger Shah & Brian Laruso Original Mix]"    PERFORMER "Global Experience"    REM COMPOSER ""    INDEX 01 00:00:00

Covers

Roger Shah pres. High Noon At Salinas - Beach Grooves Vol. 1 (2CD) - 2017, FLAC (tracks+.cue), lossless

To download the content you need:
1. Download and install torrent client [for Windows] or for mobile system
2. Click on [Download]
Attention.
If the test YOU are NOT a ROBOT - does not work, then You are using an outdated browser.
Install the current browser and click on [Download]
Security: torrent client is allowed by Kaspersky.

[asmlocator.ru].t596531.torrent 
Torrent: Registered [ 2018-12-14 08:20 ] · 1591CD9B864E5B047C2A006F3AF3D49486065D8C

Download .torrent

Download

14 KB

Status: checked
Completed: 0 times
Size: 594 MB
terms.php
[Profile] [PM]
Display posts:    
Reply to topic

Current time is: 16-Jun 23:59

All times are UTC ± 0



You cannot post new topics in this forum
You cannot reply to topics in this forum
You cannot edit your posts in this forum
You cannot delete your posts in this forum
You cannot vote in polls in this forum
You cannot attach files in this forum
You can download files in this forum