Steve Aoki • Volt Festival (Sopron, Hungary) [2018, House, Progressive House, Electro House, HDTV, 1080i]

Reply to topic
DL-List and Torrent activity
Size:  2.42 GB   |    Registered:  8 months 9 days   |    Completed:  0 times

Seeder not seen: 6 months 1 day

 
   
 
 
Author Message

star21 ®

Gender: Female

Longevity: 3 years 9 months

Posts: 551989

Location: Екатеринбург

Post 14-Dec-2018 05:55

[Quote]


Steve Aoki

Жанр: House, Progressive House, Electro House
Продолжительность: 00:51:58
Год выпуска: 2018
Качество: HDTV
Разрешение видео/развертка: 1080i
Контейнер: TS
Видео кодек: H.264
Аудио кодек: AC3
Видео: MPEG4 Video (H264) 1920x1080 25fps 5 944 kb/s - 6 661 kb/s
Аудио: Dolby AC3 48000Hz stereo 384kbps

Треклист

01 - Hardwell & Steve Aoki ft. Kris Kiss - Anthem (Intro Edit)
02 - Deorro & Steve Aoki & MAKJ & Max Styler - Shakalaka
03 - Steve Aoki & MARNIK - Bella Ciao (Money Heist)
04 - Dimitri Vegas & Like Mike & Steve Aoki vs. Ummet Ozcan - Melody
05 - Carnage & Steve Aoki ft. Lockdown - Plur Genocide
06 - Steve Aoki ft. Daddy Yankee & Elvis Crespo & Play-N-Skillz - Azukita (Festival Edit)
07 - 2 Unlimited - Get Ready For This (Steve Aoki Remix)
08 - Steve Aoki & Chris Lake & TUJAMO - Boneless
09 - Steve Aoki & Quintino - Mayhem
10 - Steve Aoki & Louis Tomlinson - Just Hold On (Steve Aoki Festival Edit)
11 - Laidback Luke & Steve Aoki ft. Bruce Buffer - It's Time
12 - Steve Aoki ft. AJR & Lil Yatchy - Pretender
13 - Dimitri Vegas & Like Mike vs. W&W - Crowd Control
14 - Steve Aoki - Cake Face
15 - Avicii ft. Andreas Moe - Fade Into Darkness
16 - Steve Aoki & Loopers ft. Vinnie Jones - Pika Pika
17 - Steve Aoki & Vini Vici ft. Mama Aoki - Moshi Moshi
18 - Don Diablo & Steve Aoki x Lush & Simon ft. BullySongs - What We Started
19 - Laidback Luke & Steve Aoki ft. Lil Jon - Turbulence (ID Remix)
20 - Linkin Park - One More Light (Steve Aoki Chester Forever Remix)
21 - Steve Aoki - Lie To Me

Отчёт MediaInfo / BDInfo

GeneralID                             : 1 (0x1)Complete name                  : E:\Steve Aoki - Volt Festival (Sopron, Hungary) 2018.tsFormat                         : MPEG-TSFile size                      : 2.42 GiBDuration                       : 51 min 57 sOverall bit rate mode          : VariableOverall bit rate               : 6 661 kb/sVideoID                             : 1102 (0x44E)Menu ID                        : 112 (0x70)Format                         : AVCFormat/Info                    : Advanced Video CodecFormat profile                 : High@L4Format settings                : CABAC / 3 Ref FramesFormat settings, CABAC         : YesFormat settings, ReFrames      : 3 framesCodec ID                       : 27Duration                       : 51 min 57 sBit rate                       : 5 944 kb/sWidth                          : 1 920 pixelsHeight                         : 1 080 pixelsDisplay aspect ratio           : 16:9Frame rate                     : 25.000 FPSColor space                    : YUVChroma subsampling             : 4:2:0Bit depth                      : 8 bitsScan type                      : MBAFFScan type, store method        : Interleaved fieldsScan order                     : Top Field FirstBits/(Pixel*Frame)             : 0.115Stream size                    : 2.16 GiB (89%)AudioID                             : 1202 (0x4B2)Menu ID                        : 112 (0x70)Format                         : AC-3Format/Info                    : Audio Coding 3Commercial name                : Dolby DigitalCodec ID                       : 6Duration                       : 51 min 57 sBit rate mode                  : ConstantBit rate                       : 384 kb/sChannel(s)                     : 2 channelsChannel layout                 : L RSampling rate                  : 48.0 kHzFrame rate                     : 31.250 FPS (1536 SPF)Bit depth                      : 16 bitsCompression mode               : LossyDelay relative to video        : -80 msStream size                    : 143 MiB (6%)Language                       : HungarianService kind                   : Complete Main

Скриншоты


To download the content you need:
1. Download and install torrent client [for Windows] or for mobile system
2. Click on [Download]
Attention.
If the test YOU are NOT a ROBOT - does not work, then You are using an outdated browser.
Install the current browser and click on [Download]
Security: torrent client is allowed by Kaspersky.

[asmlocator.ru].t596491.torrent 
Torrent: Registered [ 2018-12-14 05:55 ] · DECEEC6D553435C3C0B0E38E583CA9D9FE35392B

Download .torrent

Download

13 KB

Status: checked
Completed: 0 times
Size: 2.42 GB
terms.php
[Profile] [PM]
Display posts:    
Reply to topic

Current time is: 23-Aug 19:10

All times are UTC ± 0



You cannot post new topics in this forum
You cannot reply to topics in this forum
You cannot edit your posts in this forum
You cannot delete your posts in this forum
You cannot vote in polls in this forum
You cannot attach files in this forum
You can download files in this forum