[VIDEO] Геракл / Hercules (Бретт Рэтнер / Brett Ratner) [2014, боевик, приключения, фэнтези, BDRip] [MP4, 480x] [Театральная версия / Theatrical Cut] Dub Blu-ray

Reply to topic
DL-List and Torrent activity
Size:  436 MB   |    Registered:  6 months 2 days   |    Completed:  0 times

Seeder not seen: Never

 
   
 
 
Author Message

star21 ®

Gender: Female

Longevity: 3 years 7 months

Posts: 552147

Location: Екатеринбург

Post 14-Dec-2018 05:55

[Quote]

Геракл / Hercules[Театральная версия / Theatrical Cut] Год выпуска: 2014
Страна: США / Paramount Pictures
Жанр: боевик, приключения, фэнтези
Продолжительность: 01:38:04
Перевод: русский Профессиональный (полное дублирование) Blu-ray
Субтитры: нетРежиссер: Бретт Рэтнер / Brett RatnerВ ролях: Дуэйн Джонсон, Аксель Хенни, Джозеф Файнс, Джон Хёрт, Иэн МакШейн, Роберт Мэйллет, Руфус Сьюэлл, Ирина Шейк, Ингрид Болсай Бердал, Джо Андерсон и другие .Описание: Более тысячи лет назад измученная душа скиталась по Земле, полубог, получеловек — Геракл — могучий сын царя богов Зевса, совершив все 12 подвигов, потерял семью и теперь находит утешение только в кровавых битвах.
За эти годы он собирает вокруг себя шестерых таких же потерянных воинов, единственным смыслом жизни для которых стали сражения и присутствие смертельной опасности. Эти мужчины и женщина никогда не задают вопрос, где, почему или с кем они идут сражаться; только, сколько им заплатят. Зная это, фракийский царь Котис нанимает этих воинов, чтобы они обучили его солдат и сделали из них самую сильную и великую армию всех времен.
Геракл начинает сомневаться в намерениях Котиса, когда тот выводит свою армию и жертвами ее нападения становятся невинные люди соседних поселений. И тогда он принимает решение остановить обезумевшего от власти царя и его армию от похода на Грецию, а, быть может, и на сам Олимп…
Релиз группы Качество: BDRip / рип с Blu-ray Disc 1080p [Theatrical Cut]
Формат: MP4
Видео кодек: XviD
Аудио кодек: AAC
Видео: 480x200 AR:2.40 490 kbps 23.976 fps
Аудио: [Russian] 2ch 48 kHz 128 kbps - [Dub] Профессиональный (полное дублирование) Blu-ray

ТХ/MediaInfo

GeneralComplete name                            : J:\Torrents\Hercules.(Theatrical Cut).2014.BDRip.XviD.480x.rip by Frost O.S.mp4Format                                   : MPEG-4Format profile                           : Base MediaCodec ID                                 : isom (isom)File size                                : 436 MiBDuration                                 : 1 h 38 minOverall bit rate mode                    : VariableOverall bit rate                         : 622 kb/sEncoded date                             : UTC 2018-12-13 22:37:59Tagged date                              : UTC 2018-12-13 22:37:59Writing application                      : My MP4Box GUI 0.6.0.6VideoID                                       : 1Format                                   : MPEG-4 VisualFormat profile                           : Advanced Simple@L5Format settings                          : BVOP / Custom MatrixFormat settings, BVOP                    : YesFormat settings, QPel                    : NoFormat settings, GMC                     : No warppointsFormat settings, Matrix                  : CustomCodec ID                                 : mp4v-20Duration                                 : 1 h 38 minBit rate mode                            : VariableBit rate                                 : 490 kb/sMaximum bit rate                         : 2 467 kb/sWidth                                    : 480 pixelsHeight                                   : 200 pixelsDisplay aspect ratio                     : 2.40:1Frame rate mode                          : ConstantFrame rate                               : 23.976 (24000/1001) FPSColor space                              : YUVChroma subsampling                       : 4:2:0Bit depth                                : 8 bitsScan type                                : ProgressiveCompression mode                         : LossyBits/(Pixel*Frame)                       : 0.213Stream size                              : 344 MiB (79%)Title                                    : Hercules.(Theatrical Cut).2014.BDRip.XviD.480x.rip by Frost O.SWriting library                          : XviD 1.2.1 (UTC 2008-12-04)Encoded date                             : UTC 2018-12-13 22:37:59Tagged date                              : UTC 2018-12-13 22:38:01AudioID                                       : 2Format                                   : AACFormat/Info                              : Advanced Audio CodecFormat profile                           : LCCodec ID                                 : mp4a-40-2Duration                                 : 1 h 38 minBit rate mode                            : VariableBit rate                                 : 128 kb/sMaximum bit rate                         : 136 kb/sChannel(s)                               : 2 channelsChannel positions                        : Front: L RSampling rate                            : 48.0 kHzFrame rate                               : 46.875 FPS (1024 SPF)Compression mode                         : LossyStream size                              : 89.8 MiB (21%)Title                                    : Russian / Dub, Blu-rayEncoded date                             : UTC 2018-12-13 22:38:00Tagged date                              : UTC 2018-12-13 22:38:01

Скриншоты




To download the content you need:
1. Download and install torrent client [for Windows] or for mobile system
2. Click on [Download]
Attention.
If the test YOU are NOT a ROBOT - does not work, then You are using an outdated browser.
Install the current browser and click on [Download]
Security: torrent client is allowed by Kaspersky.

[asmlocator.ru].t596484.torrent 
Torrent: Registered [ 2018-12-14 05:55 ] · 6599CDD14F24CB0633C21F5BB7C92A1A820C00FC

Download .torrent

Download

18 KB

Status: checked
Completed: 0 times
Size: 436 MB
terms.php
[Profile] [PM]
Display posts:    
Reply to topic

Current time is: 17-Jun 00:01

All times are UTC ± 0



You cannot post new topics in this forum
You cannot reply to topics in this forum
You cannot edit your posts in this forum
You cannot delete your posts in this forum
You cannot vote in polls in this forum
You cannot attach files in this forum
You can download files in this forum