(Funeral Doom Metal) [WEB] Comatose Vigil A.K. - Evangelium Nihil - 2018, FLAC (tracks), lossless

Reply to topic
DL-List and Torrent activity
Size:  501 MB   |    Registered:  6 months 3 days   |    Completed:  0 times

Seeder not seen: 3 months 22 days

 
   
 
 
Author Message

star21 ®

Gender: Female

Longevity: 3 years 7 months

Posts: 552147

Location: Екатеринбург

Post 13-Dec-2018 23:40

[Quote]

Comatose Vigil A.K. / Evangelium Nihil Жанр: Funeral Doom Metal
Носитель: WEB
Год издания: 2018
Страна исполнителя (группы): Russia
Аудиокодек: FLAC (*.flac)
Тип рипа: tracks
Битрейт аудио: lossless
Продолжительность: 1:11:51
Источник (релизер): deezer
Наличие сканов в содержимом раздачи: нет
Треклист:
01. Evangelium Nihil (17:57)
02. Comatose Vigil (16:16)
03. Deus Sterilis (17:31)
04. The Day Heaven Fell (20:08)

Лог проверки качества

CUE Corrector v. 7.6.3 / b. 598 (May 12, 2016)————————————————————————————————————————————————————————————————————————Comatose Vigil a.k. / Evangelium NihilFolder: Comatose Vigil A.K. - Evangelium Nihil 2018Audio files:    01 - Evangelium Nihil.flac [17:57.26; FLAC • 974 kbps • 16 bit \ 44100 Hz • stereo; 125,10 MB (131 171 971 bytes)]    02 - Comatose Vigil.flac [16:15.57; FLAC • 956 kbps • 16 bit \ 44100 Hz • stereo; 111,27 MB (116 678 676 bytes)]    03 - Deus Sterilis.flac [17:30.57; FLAC • 1003 kbps • 16 bit \ 44100 Hz • stereo; 125,75 MB (131 856 910 bytes)]    04 - The Day Heaven Fell.flac [20:08.01; FLAC • 949 kbps • 16 bit \ 44100 Hz • stereo; 136,74 MB (143 378 742 bytes)]Accuracy: -m0File 01 - Evangelium Nihil    - 100% CDDA [17:57.26]File 02 - Comatose Vigil      - 100% CDDA [16:15.57]File 03 - Deus Sterilis       - 100% CDDA [17:30.57]File 04 - The Day Heaven Fell - 100% CDDA [20:08.01]————— Summary: —————These tracks looks like CDDA with probability 100%.————————————————————————————————————————————————————————————————————————ANALYZER:    auCDtect: CD records authenticity detector, version 0.8.2    Copyright (c) 2004 Oleg Berngardt. All rights reserved.    Copyright (c) 2004 Alexander Djourik. All rights reserved.Time elapsed: 3 m 23 sLog created at December 14, 2018 00:47:58=== 92744A64ACFF6F52D7D4B0572C475BAC049E83FCACFAB2FC25AEEE8462A904FB ===

Замер динамического диапазона

foobar2000 1.4 / Замер динамического диапазона (DR) 1.1.1Дата отчёта:  2018-12-14 00:46:50--------------------------------------------------------------------------------Анализ:   Comatose Vigil a.k. / Evangelium Nihil--------------------------------------------------------------------------------DR         Пики         RMS           Продолжительность трека--------------------------------------------------------------------------------DR5        0.00 дБ    -6.47 дБ     17:57 01-Evangelium NihilDR5        0.00 дБ    -6.36 дБ     16:16 02-Comatose VigilDR5        0.00 дБ    -5.98 дБ     17:31 03-Deus SterilisDR5        0.00 дБ    -6.10 дБ     20:08 04-The Day Heaven Fell--------------------------------------------------------------------------------Количество треков: 4Реальные значения DR: DR5Частота:   44100 ГцКаналов:   2Разрядность:   16Битрейт:   937 кбит/сКодек:   FLAC================================================================================

To download the content you need:
1. Download and install torrent client [for Windows] or for mobile system
2. Click on [Download]
Attention.
If the test YOU are NOT a ROBOT - does not work, then You are using an outdated browser.
Install the current browser and click on [Download]
Security: torrent client is allowed by Kaspersky.

[asmlocator.ru].t596465.torrent 
Torrent: Registered [ 2018-12-13 23:40 ] · 1F7F1495946451672468355A6D394858D0F83117

Download .torrent

Download

20 KB

Status: checked
Completed: 0 times
Size: 501 MB
terms.php
[Profile] [PM]
Display posts:    
Reply to topic

Current time is: 17-Jun 00:00

All times are UTC ± 0



You cannot post new topics in this forum
You cannot reply to topics in this forum
You cannot edit your posts in this forum
You cannot delete your posts in this forum
You cannot vote in polls in this forum
You cannot attach files in this forum
You can download files in this forum