[MV] Hyorin - One Way Love (Master HD 1080p) [2013, KPop, HD 1080p]

Reply to topic
DL-List and Torrent activity
Size:  839 MB   |    Registered:  6 months 3 days   |    Completed:  0 times

Seeder not seen: Never

 
   
 
 
Author Message

star21 ®

Gender: Female

Longevity: 3 years 7 months

Posts: 552147

Location: Екатеринбург

Post 13-Dec-2018 19:30

[Quote]

.Hyorin - One Way Love
Жанр: KPop
Продолжительность: 00:03:33
Релиз: 2013.11.26Качество: HD 1080p
Контейнер: MKV
Видео: AVC, 1920x1080 (16:9), 31.9 Мбит/с, 24.0 кадра/с
Аудио: FLAC, 1100 Кбит/с, 44.1 КГц, 16 бит, stereo

MediaInfo

Общее
Уникальный идентификатор : 171507956177529488827303046539451556588 (0x81073B190146AB609E2F3F321077E2EC)
Полное имя : G:\K-Pop\Bugs!\Hyorin - One Way Love [Master HD 1080p].mkv
Формат : Matroska
Версия формата : Version 4 / Version 2
Размер файла : 839 Мбайт
Продолжительность : 3 м. 33 с.
Режим общего битрейта : Переменный
Общий поток : 33,0 Мбит/сек
Дата кодирования : UTC 2016-03-13 05:17:34
Программа кодирования : mkvmerge v8.9.0 ('Father Daughter') 64bit
Библиотека кодирования : libebml v1.3.3 + libmatroska v1.4.4Видео
Идентификатор : 1
Формат : AVC
Формат/Информация : Advanced Video Codec
Профиль формата : Main@L4.2
Параметр CABAC формата : Да
Параметр RefFrames формата : 3 кадра
Параметр GOP формата : M=4, N=10
Идентификатор кодека : V_MPEG4/ISO/AVC
Продолжительность : 3 м. 33 с.
Битрейт : 31,9 Мбит/сек
Ширина : 1920 пикселей
Высота : 1080 пикселей
Соотношение сторон : 16:9
Режим частоты кадров : Постоянный
Частота кадров : 23,976 (23976/1000) кадра/сек
Частота кадров в оригинале : 23,976 (24000/1001) кадра/сек
Стандарт вещания : NTSC
Цветовое пространство : YUV
Субдискретизация насыщенности : 4:2:0
Битовая глубина : 8 бит
Тип развёртки : Прогрессивная
Бит/(Пиксели*Кадры) : 0.641
Размер потока : 811 Мбайт (97%)
Язык : English
Default : Да
Forced : Нет
Цветовой диапазон : LimitedАудио
Идентификатор : 2
Формат : FLAC
Формат/Информация : Free Lossless Audio Codec
Идентификатор кодека : A_FLAC
Продолжительность : 3 м. 33 с.
Вид битрейта : Переменный
Битрейт : 1100 Кбит/сек
Каналы : 2 канала
Расположение каналов : Front: L R
Частота : 44,1 КГц
Частота кадров : 38,285 кадров/сек (1152 SPF)
Битовая глубина : 16 бит
Размер потока : 28,0 Мбайт (3%)
Библиотека кодирования : libFLAC 1.0.25 (UTC 2007-09-17)
Default : Да
Forced : Нет

Скриншоты


To download the content you need:
1. Download and install torrent client [for Windows] or for mobile system
2. Click on [Download]
Attention.
If the test YOU are NOT a ROBOT - does not work, then You are using an outdated browser.
Install the current browser and click on [Download]
Security: torrent client is allowed by Kaspersky.

[asmlocator.ru].t596399.torrent 
Torrent: Registered [ 2018-12-13 19:30 ] · 8AFF752386D8DBCE5CF2A8ECF6DE3D71D9EA3FEB

Download .torrent

Download

17 KB

Status: checked
Completed: 0 times
Size: 839 MB
terms.php
[Profile] [PM]
Display posts:    
Reply to topic

Current time is: 17-Jun 00:01

All times are UTC ± 0



You cannot post new topics in this forum
You cannot reply to topics in this forum
You cannot edit your posts in this forum
You cannot delete your posts in this forum
You cannot vote in polls in this forum
You cannot attach files in this forum
You can download files in this forum