Вечеринка в саду / Garden Party (Флориан Бабикян / Florian Babikian, Венсан Байо / Vincent Bayoux, Виктор Кэр / Victor Caire, Габриэль Грапперон / Gabriel Grapperon) [2017, Франция, короткометражный анимационный фильм, WEBRip-AVC]

Reply to topic
DL-List and Torrent activity
Size:  29 MB   |    Registered:  6 months 13 days   |    Completed:  0 times

Seeder not seen: Never

 
   
 
 
Author Message

star21 ®

Gender: Female

Longevity: 3 years 7 months

Posts: 552115

Location: Екатеринбург

Post 13-Dec-2018 19:30

[Quote]

Вечеринка в саду
Garden Party
Год выпуска: 2017
Страна: Франция
Жанр: короткометражный анимационный фильм
Продолжительность: 00:07:16
Перевод: не требуется
субтитры: отсутствуютРежиссёр: Флориан Бабикян / Florian Babikian, Венсан Байо / Vincent Bayoux, Виктор Кэр / Victor Caire, Габриэль Грапперон / Gabriel Grapperon, Теофиль Дюфрен / Théophile Dufresne, Лукас Наварро / Lucas NavarroОписание: На богатой вилле обосновались лягушки, которые уже чувствуют себя хозяевами… [imdb]http://www.imdb.com/title/tt6426140[/imdb] релиз: Качество: WEBRip-AVC
Формат: MKV
Видео кодек: AVC
Аудио кодек: AAC
Видео: 854x462, 24 fps, ~435 kbps, 0.046 bit/pixel
Аудио: 44,1kHz, AAC, 2ch, 126 kbps

кадры НЕ для детей

MediaInfo

Общее
Уникальный идентификатор : 243386108463385432172694099566698633772 (0xB71A759D7348CB877AB3AE1ABE031A2C)
Полное имя : D:\Garden Party.2017.WEBRip-AVC.mkv
Формат : Matroska
Версия формата : Version 4 / Version 2
Размер файла : 29,2 Мбайт
Продолжительность : 7 м. 16 с.
Общий поток : 563 Кбит/сек
Дата кодирования : UTC 2018-12-13 16:40:38
Программа кодирования : mkvmerge v29.0.0 ('Like It Or Not') 64-bit
Библиотека кодирования : libebml v1.3.6 + libmatroska v1.4.9Видео
Идентификатор : 1
Формат : AVC
Формат/Информация : Advanced Video Codec
Профиль формата : Main@L3
Настройки формата : CABAC / 3 Ref Frames
Параметр CABAC формата : Да
Параметр RefFrames формата : 3 кадра
Идентификатор кодека : V_MPEG4/ISO/AVC
Продолжительность : 7 м. 15 с.
Битрейт : 435 Кбит/сек
Ширина : 854 пикселя
Высота : 462 пикселя
Соотношение сторон : 1,85:1
Режим частоты кадров : Постоянный
Частота кадров : 24,000 кадра/сек
Цветовое пространство : YUV
Субдискретизация насыщенности : 4:2:0
Битовая глубина : 8 бит
Тип развёртки : Прогрессивная
Бит/(Пиксели*Кадры) : 0.046
Размер потока : 22,6 Мбайт (77%)
Default : Да
Forced : НетАудио
Идентификатор : 2
Формат : AAC
Формат/Информация : Advanced Audio Codec
Профиль формата : LC
Идентификатор кодека : A_AAC-2
Продолжительность : 7 м. 16 с.
Битрейт : 126 Кбит/сек
Каналы : 2 канала
Расположение каналов : Front: L R
Частота : 44,1 КГц
Частота кадров : 43,066 кадра/сек (1024 SPF)
Метод сжатия : С потерями
Задержка видео : 62 мс.
Размер потока : 6,53 Мбайт (22%)
Default : Да
Forced : Нет

To download the content you need:
1. Download and install torrent client [for Windows] or for mobile system
2. Click on [Download]
Attention.
If the test YOU are NOT a ROBOT - does not work, then You are using an outdated browser.
Install the current browser and click on [Download]
Security: torrent client is allowed by Kaspersky.

[asmlocator.ru].t596385.torrent 
Torrent: Registered [ 2018-12-13 19:30 ] · F2899CBBE38BAFB3C4174833121DD1A28DD4144C

Download .torrent

Download

10 KB

Status: checked
Completed: 0 times
Size: 29 MB
terms.php
[Profile] [PM]
Display posts:    
Reply to topic

Current time is: 27-Jun 07:06

All times are UTC ± 0



You cannot post new topics in this forum
You cannot reply to topics in this forum
You cannot edit your posts in this forum
You cannot delete your posts in this forum
You cannot vote in polls in this forum
You cannot attach files in this forum
You can download files in this forum