(Instrumental Jazz-Rock, Fusion) [CD] Istvan Alapi (István Alapi) - Inner Vortex - 2013 (Gramy Records), FLAC (tracks+.cue), lossless

Reply to topic
DL-List and Torrent activity
Size:  447 MB   |    Registered:  7 months 4 days   |    Completed:  0 times

Seeder not seen: Never

 
   
 
 
Author Message

star21 ®

Gender: Female

Longevity: 3 years 8 months

Posts: 552042

Location: Екатеринбург

Post 13-Dec-2018 15:20

[Quote]

Istvan Alapi (István Alapi) - Inner Vortex - 2013 (Gramy Records) Венгерский гитарист с узнаваемой техникой и стилем. Хорошо известен, как постоянный участник прог-группы Edda MűvekЖанр: Instrumental Jazz-Rock, Fusion
Носитель: CD
Страна-производитель диска (релиза): Hungary
Год издания оригинала: 2013
Издатель (лейбл): Gramy Records
Номер по каталогу: GR 110
Страна исполнителя (группы) : HungaryАудио кодек: FLAC (*.flac)
Тип рипа: (tracks + .cue)
Битрейт аудио: lossless
Корректность рипа: В оригинале не было применено сжатие при конвертировании во Флак (FLAC Level 0). Для приведения в соответствие правилам пережато во FLAC Level 8 с сохранением тэгов
Наличие сканов в содержимом раздачи: front only
Продолжительность: 1:05:31
Источник (релизер): larryz (Nafta Music)Трэклист:
1 - Ghostbusters
2 - Dance With The Daemon
3 - Bob!...Don't Worry...!
4 - Inner Vortex
5 - Dear 70's
6 - My Sweet Memories
7 - Sunset
8 - The 1001st Night After
9 - Over The Gate Of The Golden Country
10 - New York 3 AM
11 - New York 3 AM 2020 (Bonus track)

Лог создания рипа

Exact Audio Copy V1.0 beta 3 from 29. August 2011EAC extraction logfile from 29. December 2015, 12:44István Alapi / Inner VortexUsed drive  : Optiarc DVD RW AD-7580S   Adapter: 1  ID: 0Read mode               : SecureUtilize accurate stream : YesDefeat audio cache      : YesMake use of C2 pointers : NoRead offset correction                      : 6Overread into Lead-In and Lead-Out          : NoFill up missing offset samples with silence : YesDelete leading and trailing silent blocks   : NoNull samples used in CRC calculations       : YesUsed interface                              : Native Win32 interface for Win NT & 2000Gap handling                                : Appended to previous trackUsed output format              : User Defined EncoderSelected bitrate                : 1024 kBit/sQuality                         : HighAdd ID3 tag                     : NoCommand line compressor         : D:\Program Files\Exact Audio Copy\Flac\flac.exeAdditional command line options : -V -0 -T "artist=%artist%" -T "title=%title%" -T "album=%albumtitle%" -T "date=%year%" -T "tracknumber=%tracknr%" -T "genre=%genre%" %source%TOC of the extracted CD     Track |   Start  |  Length  | Start sector | End sector    ---------------------------------------------------------        1  |  0:00.00 |  7:02.61 |         0    |    31710        2  |  7:02.61 |  3:32.00 |     31711    |    47610        3  | 10:34.61 |  4:50.74 |     47611    |    69434        4  | 15:25.60 |  4:36.00 |     69435    |    90134        5  | 20:01.60 |  2:24.00 |     90135    |   100934        6  | 22:25.60 |  7:36.71 |    100935    |   135205        7  | 30:02.56 |  5:10.43 |    135206    |   158498        8  | 35:13.24 |  4:59.05 |    158499    |   180928        9  | 40:12.29 |  4:55.00 |    180929    |   203053       10  | 45:07.29 | 10:12.00 |    203054    |   248953       11  | 55:19.29 | 10:12.00 |    248954    |   294853Track  1     Filename D:\EACRip\István Alapi - Inner Vortex (2013) [FLAC]\01 - Ghostbusters.wav     Pre-gap length  0:00:02.00     Peak level 70.7 %     Extraction speed 2.8 X     Track quality 100.0 %     Test CRC 8C7298CD     Copy CRC 8C7298CD     Accurately ripped (confidence 1)  [F5A8E750]  (AR v2)     Copy OKTrack  2     Filename D:\EACRip\István Alapi - Inner Vortex (2013) [FLAC]\02 - Dance With The Daemon.wav     Peak level 71.6 %     Extraction speed 3.0 X     Track quality 100.0 %     Test CRC 7B9557FA     Copy CRC 7B9557FA     Accurately ripped (confidence 1)  [C1EBC4A5]  (AR v2)     Copy OKTrack  3     Filename D:\EACRip\István Alapi - Inner Vortex (2013) [FLAC]\03 - Bob!...Don't Worry...!.wav     Peak level 70.7 %     Extraction speed 3.4 X     Track quality 100.0 %     Test CRC 5DC3A349     Copy CRC 5DC3A349     Accurately ripped (confidence 1)  [A153EF9F]  (AR v2)     Copy OKTrack  4     Filename D:\EACRip\István Alapi - Inner Vortex (2013) [FLAC]\04 - Inner Vortex.wav     Peak level 70.7 %     Extraction speed 3.6 X     Track quality 100.0 %     Test CRC 950B324C     Copy CRC 950B324C     Accurately ripped (confidence 1)  [D8EFB767]  (AR v2)     Copy OKTrack  5     Filename D:\EACRip\István Alapi - Inner Vortex (2013) [FLAC]\05 - Dear 70's.wav     Peak level 70.7 %     Extraction speed 3.4 X     Track quality 100.0 %     Test CRC 2213E5B2     Copy CRC 2213E5B2     Accurately ripped (confidence 1)  [99D98E66]  (AR v2)     Copy OKTrack  6     Filename D:\EACRip\István Alapi - Inner Vortex (2013) [FLAC]\06 - My Sweet Memories.wav     Peak level 70.7 %     Extraction speed 4.3 X     Track quality 100.0 %     Test CRC 410FBF61     Copy CRC 410FBF61     Accurately ripped (confidence 1)  [8EB8CFF3]  (AR v2)     Copy OKTrack  7     Filename D:\EACRip\István Alapi - Inner Vortex (2013) [FLAC]\07 - Sunset.wav     Peak level 70.7 %     Extraction speed 4.4 X     Track quality 100.0 %     Test CRC 258DAEC8     Copy CRC 258DAEC8     Accurately ripped (confidence 1)  [8A44DA60]  (AR v2)     Copy OKTrack  8     Filename D:\EACRip\István Alapi - Inner Vortex (2013) [FLAC]\08 - The 1001st Night After.wav     Peak level 70.7 %     Extraction speed 4.5 X     Track quality 100.0 %     Test CRC 2E0AAEB2     Copy CRC 2E0AAEB2     Accurately ripped (confidence 1)  [A6B2BE3A]  (AR v2)     Copy OKTrack  9     Filename D:\EACRip\István Alapi - Inner Vortex (2013) [FLAC]\09 - Over The Gate Of The Golden Country.wav     Peak level 70.7 %     Extraction speed 4.8 X     Track quality 100.0 %     Test CRC 0394B0B5     Copy CRC 0394B0B5     Accurately ripped (confidence 1)  [EB374628]  (AR v2)     Copy OKTrack 10     Filename D:\EACRip\István Alapi - Inner Vortex (2013) [FLAC]\10 - New York 3 AM.wav     Peak level 70.7 %     Extraction speed 5.3 X     Track quality 100.0 %     Test CRC 3714177B     Copy CRC 3714177B     Accurately ripped (confidence 1)  [C06E146D]  (AR v2)     Copy OKTrack 11     Filename D:\EACRip\István Alapi - Inner Vortex (2013) [FLAC]\11 - New York 3 AM 2020 (Bonus).wav     Peak level 70.7 %     Extraction speed 5.5 X     Track quality 100.0 %     Test CRC F24BD4AF     Copy CRC F24BD4AF     Accurately ripped (confidence 1)  [E5FC76BB]  (AR v2)     Copy OKAll tracks accurately rippedNo errors occurredEnd of status report---- CUETools DB Plugin V2.1.3[CTDB TOCID: 3IvZCsO9Q.6qlB3cR8pCuTGUuSo-] found, Submit result: already submitted[5080df16] (2/3) Accurately ripped[3b98eff2] (1/3) Differs in 2352 samples @52:15:40-52:15:42You can use CUETools to repair this rip.==== Log checksum E94EA701453E6A5372F1A8F1E43F4E1309A3841A145E8B6DFB39AFC9A71F2796 ====

Содержание индексной карты (.CUE):

REM GENRE FusionREM DATE 2013REM DISCID 7E0F5B0BREM COMMENT "ExactAudioCopy v1.0b3"FILE "01 - Ghostbusters.wav" WAVE  TRACK 01 AUDIO    INDEX 01 00:00:00FILE "02 - Dance With The Daemon.wav" WAVE  TRACK 02 AUDIO    INDEX 01 00:00:00FILE "03 - Bob!...Don't Worry...!.wav" WAVE  TRACK 03 AUDIO    INDEX 01 00:00:00FILE "04 - Inner Vortex.wav" WAVE  TRACK 04 AUDIO    INDEX 01 00:00:00FILE "05 - Dear 70's.wav" WAVE  TRACK 05 AUDIO    INDEX 01 00:00:00FILE "06 - My Sweet Memories.wav" WAVE  TRACK 06 AUDIO    INDEX 01 00:00:00FILE "07 - Sunset.wav" WAVE  TRACK 07 AUDIO    INDEX 01 00:00:00FILE "08 - The 1001st Night After.wav" WAVE  TRACK 08 AUDIO    INDEX 01 00:00:00FILE "09 - Over The Gate Of The Golden Country.wav" WAVE  TRACK 09 AUDIO    INDEX 01 00:00:00FILE "10 - New York 3 AM.wav" WAVE  TRACK 10 AUDIO    INDEX 01 00:00:00FILE "11 - New York 3 AM 2020 (Bonus).wav" WAVE  TRACK 11 AUDIO    INDEX 01 00:00:00

Лог проверки качества

-----------------------DON'T MODIFY THIS FILE-----------------------PERFORMER: auCDtect Task Manager, ver. 1.6.0 RC1 build 1.6.0.1Copyright (c) 2008-2010 y-soft. All rights reservedhttp://y-soft.orgANALYZER: auCDtect: CD records authenticity detector, version 0.8.2Copyright (c) 2004 Oleg Berngardt. All rights reserved.Copyright (c) 2004 Alexander Djourik. All rights reserved.FILE: 11 - New York 3 AM 2020 (Bonus).flac  Size: 72575428 Hash: 45A47970A0F9A4F96C681C4AAAB54C0F Accuracy: -m0  Conclusion: CDDA 100%  Signature: 6245DE08490D9D2A8D95FB1EEF832C0E5A989893FILE: 10 - New York 3 AM.flac  Size: 72130234 Hash: AC7CDACE45AFF7285C56E46C000E9809 Accuracy: -m0  Conclusion: CDDA 100%  Signature: 51FBF4198625817397AAF92A109CD97D6143607DFILE: 09 - Over The Gate Of The Golden Country.flac  Size: 39605775 Hash: 3E7D6AE0224859142EB5042C824FBC49 Accuracy: -m0  Conclusion: CDDA 100%  Signature: DC935A895454878395B3981F321A4628539CED37FILE: 08 - The 1001st Night After.flac  Size: 38077459 Hash: 169F122BD9205BACE89583F9218C3AF7 Accuracy: -m0  Conclusion: CDDA 100%  Signature: 12BAB02DC9AFCE6785CD5F4C5D1D0309353A08C0FILE: 07 - Sunset.flac  Size: 40980233 Hash: C9D499DDC4DF7016BD48EBA661CFA0EF Accuracy: -m0  Conclusion: CDDA 100%  Signature: AE494CFC06F598E279C3D5809471A75514588817FILE: 06 - My Sweet Memories.flac  Size: 56217335 Hash: 907AC528A835CE10F7DE80ABFFA82810 Accuracy: -m0  Conclusion: CDDA 100%  Signature: CED531E69BDAC1DA725A6661214991A2E3D6CA28FILE: 05 - Dear 70's.flac  Size: 18697530 Hash: D6F130041E0B0E748199797DEFE55CC6 Accuracy: -m0  Conclusion: CDDA 100%  Signature: B798309554FE5117BEFF0D3D5E56421DD8ECA014FILE: 04 - Inner Vortex.flac  Size: 35507022 Hash: 71B27BBD1BBE0D3B85A233418F5F7156 Accuracy: -m0  Conclusion: CDDA 100%  Signature: 46012D04217A2CB33E2F117C2BEFED36969572DBFILE: 03 - Bob!...Don't Worry...!.flac  Size: 38226024 Hash: CFFB7091CFFAA8B29AFE45300EF7DACC Accuracy: -m0  Conclusion: CDDA 100%  Signature: E17C3DC175C70A674E25C42FE667C7CBAD4A1252FILE: 02 - Dance With The Daemon.flac  Size: 28765986 Hash: 77B2324A45CD54C45A6D473D4E406320 Accuracy: -m0  Conclusion: CDDA 100%  Signature: 833DF4B99B1CC08D890D0A1D3DB974F5BA17D6B5FILE: 01 - Ghostbusters.flac  Size: 56357370 Hash: 54F16940C3F96BF0C7C3793C032BA5C5 Accuracy: -m0  Conclusion: CDDA 100%  Signature: 5652237B73CBE42ECC4796150B5EAA32189BEA77

Лог CUETools

[CUETools log; Date: 2/27/2018 7:41:13 AM; Version: 2.1.5][CTDB TOCID: 3IvZCsO9Q.6qlB3cR8pCuTGUuSo-] found.Track | CTDB Status  1   | (3/3) Accurately ripped  2   | (3/3) Accurately ripped  3   | (3/3) Accurately ripped  4   | (3/3) Accurately ripped  5   | (3/3) Accurately ripped  6   | (3/3) Accurately ripped  7   | (3/3) Accurately ripped  8   | (3/3) Accurately ripped  9   | (3/3) Accurately ripped 10   | (2/3) Accurately ripped 11   | (3/3) Accurately ripped[AccurateRip ID: 0017d2eb-00d0e5f6-7e0f5b0b] found.Track   [  CRC   |   V2   ] Status 01     [2169ef18|f5a8e750] (0+2/2) Accurately ripped 02     [0267d231|c1ebc4a5] (0+2/2) Accurately ripped 03     [d736c6d7|a153ef9f] (0+2/2) Accurately ripped 04     [30027ea5|d8efb767] (0+2/2) Accurately ripped 05     [1ea7f8c9|99d98e66] (0+2/2) Accurately ripped 06     [b0d0d3ce|8eb8cff3] (0+2/2) Accurately ripped 07     [44fd463e|8a44da60] (0+2/2) Accurately ripped 08     [137a9a13|a6b2be3a] (0+2/2) Accurately ripped 09     [74e2cc9b|eb374628] (0+2/2) Accurately ripped 10     [bbae9786|c06e146d] (0+2/2) Accurately ripped 11     [6d5643c2|e5fc76bb] (0+2/2) Accurately rippedTrack Peak [ CRC32  ] [W/O NULL] [  LOG   ] --   71.6 [E2A09FF6] [8DC86899] 01   70.7 [8C7298CD] [705913BC]   CRC32 02   71.6 [7B9557FA] [EADF04BF]   CRC32 03   70.7 [5DC3A349] [5502ED91]   CRC32 04   70.7 [950B324C] [D244A305]   CRC32 05   70.7 [2213E5B2] [0CB026E5]   CRC32 06   70.7 [410FBF61] [E06C3408]   CRC32 07   70.7 [258DAEC8] [D6C6C809]   CRC32 08   70.7 [2E0AAEB2] [D3188EF5]   CRC32 09   70.7 [0394B0B5] [6C670666]   CRC32 10   70.7 [3714177B] [512B0726]   CRC32 11   70.7 [F24BD4AF] [D9294417]   CRC32

Замер динамического диапазона

foobar2000 1.3.10 / Замер динамического диапазона (DR) 1.1.1Дата отчёта:  2018-03-10 13:25:43--------------------------------------------------------------------------------Анализ:   István Alapi / Inner Vortex--------------------------------------------------------------------------------DR         Пики         RMS           Продолжительность трека--------------------------------------------------------------------------------DR5       -3.00 дБ    -8.80 дБ      7:03 01-GhostbustersDR5       -2.90 дБ    -9.07 дБ      3:32 02-Dance With The DaemonDR3       -3.00 дБ    -7.35 дБ      4:51 03-Bob!...Don't Worry...!DR5       -3.00 дБ    -9.39 дБ      4:36 04-Inner VortexDR5       -3.00 дБ    -8.89 дБ      2:24 05-Dear 70'sDR5       -3.00 дБ    -9.48 дБ      7:37 06-My Sweet MemoriesDR3       -3.00 дБ    -7.83 дБ      5:11 07-SunsetDR5       -3.00 дБ   -10.35 дБ      4:59 08-The 1001st Night AfterDR5       -3.00 дБ    -8.99 дБ      4:55 09-Over The Gate Of The Golden CountryDR6       -3.00 дБ   -10.15 дБ     10:12 10-New York 3 AMDR5       -3.00 дБ   -10.09 дБ     10:12 11-New York 3 AM 2020 (Bonus)--------------------------------------------------------------------------------Количество треков: 11Реальные значения DR: DR5Частота:   44100 ГцКаналов:   2Разрядность:   16Битрейт:   949 кбит/сКодек:   FLAC================================================================================

Состав

Alapi István - guitar, sitar, Arabian lute, keyboards, vocals
Banai Szilárd - drums
Mits Gergely - bass
Nagy János - piano, synthesizer
Beke Márk - synthesizer
Lantos Zoltán - violin
Csányi István - saxophone
Harun Al Rashid Jr. - percussion

To download the content you need:
1. Download and install torrent client [for Windows] or for mobile system
2. Click on [Download]
Attention.
If the test YOU are NOT a ROBOT - does not work, then You are using an outdated browser.
Install the current browser and click on [Download]
Security: torrent client is allowed by Kaspersky.

[asmlocator.ru].t596355.torrent 
Torrent: Registered [ 2018-12-13 15:20 ] · D75A512359CD52FFCCE9051AC8A12D281BD7F84C

Download .torrent

Download

19 KB

Status: checked
Completed: 0 times
Size: 447 MB
terms.php
[Profile] [PM]
Display posts:    
Reply to topic

Current time is: 18-Jul 05:45

All times are UTC ± 0



You cannot post new topics in this forum
You cannot reply to topics in this forum
You cannot edit your posts in this forum
You cannot delete your posts in this forum
You cannot vote in polls in this forum
You cannot attach files in this forum
You can download files in this forum