Затерянные в стране Оз / Lost in Oz / Сезон: 2 / Серии: 1-13 из 13 (Джа Хонг Ким, Paul Stodolny) [2018, мультфильм, семейный, WEB-DL 1080p] MVO (KANSAI) + Original

Reply to topic
DL-List and Torrent activity
Size:  12.86 GB   |    Registered:  6 months 4 days   |    Completed:  0 times

Seeder not seen: Never

 
   
 
 
Author Message

star21 ®

Gender: Female

Longevity: 3 years 7 months

Posts: 552147

Location: Екатеринбург

Post 12-Dec-2018 20:10

[Quote]

Затерянные в стране Оз / Lost in Oz
Год выпуска: 2018
Страна: Великобритания, Канада, США
Жанр: мультфильм, семейный
Продолжительность: 00:22:58Перевод:
  • Профессиональный многоголосый закадровый KANSAI
    Русские субтитры: НетРежиссер: Джа Хонг Ким, Paul Stodolny
    В ролях: Эшли Боттчер (Dorothy E. Gale), Ника Футтерман (West), Хорхе Диас (Ojo), Крис Кокс (Patchwork Doll), Кит Фергюсон (Reigh), Стефен Стэнтон (Chief Advisor Scarecrow), Фред Татаскьор (General Guph), Кэт Суси (Cyra), Дженнифер Хейл (Glinda), Грэй ДеЛисл (Evelyn Gale), Александр Полински (Fitz), Джина Гершон (Langwidere)Список серий:
  • 01. Гиблая пустыня / The Deadly Desert
  • 02. Магия из воздуха / Magic from Nothing
  • 03. Сезон затишья / The Still Season
  • 04. Вилла Роккуа / Villa Roquat
  • 05. Волшебная карта / The Magic Map
  • 06. Путь в Изумрудный город / Shortcut to Emerald City
  • 07. Только вперёд / Going Forth
  • 08. Канзасская магия / Kansas Magic
  • 09. Затмение / The Eclipse
  • 10. Спасти Сиру / Saving Cyra
  • 11. Поиск короля гномов / The Nome Kings Belt
  • 12. Побег из гномьего царства / Escape from the Nome Kingdom
  • 13. Мы знаем зеркальный / We Speak Mirror
    Описание: Мультсериал начинается с того, что двенадцатилетняя Дороти Гейл и ее верный пес Тото отправляются на поиски Доброй Глинды, в надежде, что она сможет дать им магию, необходимую для возвращения домой. По пути они встречают удивительных друзей и вместе отправляются за приключениям, которые они и не могли представить. Ссылка на предыдущие и альтернативные раздачиКачество: WEB-DL 1080p
    Формат: MKV
    Видео: AVC, 1920x1080 (16:9), 5457 kbps, 23,976 fps, 0,110 bpp
    Аудио №1: русский / AC3 / 2.0 / 48 kHz / 192 kbps
    Аудио №2: английский / EAC3 / 5.1 / 48 kHz / 640 kbps
    Субтитры: английские (SDH)
    Реклама: аудио, два раза в начале и в конце по 13 секунд

ОтчетМедиаИнфо

General
Unique ID : 198601986621966190348442858382614888443 (0x956959EF1FEE336BB33523EDDA407FFB)
Complete name : G:\0_kansai\tor\Lost.in.OZ.S02.1080p.WEBDL-KANSAI\Lost.in.OZ.S02E01.1080p.WEBDL-KANSAI.mkv
Format : Matroska
Format version : Version 4 / Version 2
File size : 1.03 GiB
Duration : 22 min
Overall bit rate mode : Variable
Overall bit rate : 6 418 kb/s
Encoded date : UTC 2018-12-12 13:29:54
Writing application : mkvmerge v6.7.0 ('Back to the Ground') 64bit built on Jan 8 2014 15:10:52
Writing library : libebml v1.3.0 + libmatroska v1.4.1Video
ID : 1
Format : AVC
Format/Info : Advanced Video Codec
Format profile : High@L4
Format settings, CABAC : Yes
Format settings, ReFrames : 4 frames
Codec ID : V_MPEG4/ISO/AVC
Duration : 22 min
Bit rate mode : Variable
Bit rate : 5 458 kb/s
Maximum bit rate : 15.0 Mb/s
Width : 1 920 pixels
Height : 1 080 pixels
Display aspect ratio : 16:9
Frame rate mode : Constant
Frame rate : 23.976 (24000/1001) FPS
Color space : YUV
Chroma subsampling : 4:2:0
Bit depth : 8 bits
Scan type : Progressive
Bits/(Pixel*Frame) : 0.110
Stream size : 897 MiB (85%)
Default : Yes
Forced : No
Color range : Limited
Color primaries : BT.709
Transfer characteristics : BT.709
Matrix coefficients : BT.709Audio #1
ID : 2
Format : AC-3
Format/Info : Audio Coding 3
Mode extension : CM (complete main)
Format settings, Endianness : Big
Codec ID : A_AC3
Duration : 22 min
Bit rate mode : Constant
Bit rate : 192 kb/s
Channel(s) : 2 channels
Channel positions : Front: L R
Sampling rate : 48.0 kHz
Frame rate : 31.250 FPS (1536 spf)
Compression mode : Lossy
Stream size : 31.6 MiB (3%)
Title : KANSAI Studio
Language : Russian
Default : Yes
Forced : NoAudio #2
ID : 3
Format : E-AC-3
Format/Info : Audio Coding 3
Format settings, Endianness : Big
Codec ID : A_EAC3
Duration : 22 min
Bit rate mode : Constant
Bit rate : 640 kb/s
Channel(s) : 6 channels
Channel positions : Front: L C R, Side: L R, LFE
Sampling rate : 48.0 kHz
Frame rate : 187.500 FPS (256 spf)
Compression mode : Lossy
Stream size : 105 MiB (10%)
Title : English
Language : English
Default : No
Forced : NoText
ID : 4
Format : UTF-8
Codec ID : S_TEXT/UTF8
Codec ID/Info : UTF-8 Plain Text
Title : English [SDH]
Language : English
Default : No
Forced : NoMenu
00:00:00.000 : en:Amazon Original
00:00:05.000 : en:Previously On
00:01:05.000 : en:Title Sequence
00:01:18.000 : en:Lost in the desert
00:04:41.000 : en:The magic carpet
00:10:41.000 : en:Dorothy is confused
00:13:19.000 : en:Troubling news from the desert
00:14:16.000 : en:Aru needs new friends
00:17:18.000 : en:Strange welcome at Nome's Kingdom
00:22:19.000 : en:End Credits

Скриншоты


To download the content you need:
1. Download and install torrent client [for Windows] or for mobile system
2. Click on [Download]
Attention.
If the test YOU are NOT a ROBOT - does not work, then You are using an outdated browser.
Install the current browser and click on [Download]
Security: torrent client is allowed by Kaspersky.

[asmlocator.ru].t596107.torrent 
Torrent: Registered [ 2018-12-12 20:10 ] · EC5BEAE791FCBE0C4333BB1AF6ED3380CB9F9633

Download .torrent

Download

66 KB

Status: checked
Completed: 0 times
Size: 12.86 GB
terms.php
[Profile] [PM]
Display posts:    
Reply to topic

Current time is: 16-Jun 23:59

All times are UTC ± 0



You cannot post new topics in this forum
You cannot reply to topics in this forum
You cannot edit your posts in this forum
You cannot delete your posts in this forum
You cannot vote in polls in this forum
You cannot attach files in this forum
You can download files in this forum