(New Age, Experimental) [CD] Manu Delago - Silver Kobalt - 2015 (Japan Bonus Track Edition), FLAC (tracks+.cue), lossless

Ответить на тему
Статистика раздачи
Размер:  348 MB   |    Зарегистрирован:  1 месяц 8 дней   |    Скачан:  0 раз

Полного источника не было: Никогда

 
   
 
 
Автор Сообщение

star21 ®

Пол: Женский

Стаж: 3 года 2 месяца

Сообщений: 552840

Откуда: Екатеринбург

Создавать темы 11-Дек-2018 23:00

[Цитировать]

Manu Delago - Silver Kobalt Жанр: New Age, Experimental
Носитель: CD
Страна-производитель диска (релиза): Япония
Год издания: 2015
Издатель (лейбл): Beat Records/Tru Thoughts
Номер по каталогу: BRC-464
Страна исполнителя (группы): Великобритания
Аудиокодек: FLAC (*.flac)
Тип рипа: tracks+.cue
Битрейт аудио: lossless
Продолжительность: 57:39
Источник (релизер): redacted
Наличие сканов в содержимом раздачи: даТреклист:
01. Disgustingly Beautiful (feat. Isa Kurz) (3:57)
02. Plus Minus (4:36)
03. Drumheart (feat. Anil Sebastian) (4:06)
04. Down to the Summit (6:36)
05. Wandering Around (4:55)
06. Simon Is Psychling [sic] (5:30)
07. Sun in the North (feat. Isa Kurz) (4:09)
08. Chemical Reaction (feat. Rahel) (7:06)
09. Dearest (feat. Katie Noonan) (6:49)
10. Almost Thirty (6:05)
11. Grey Hair Man (feat. Rahel) (3:50)

Лог создания рипа

Exact Audio Copy V1.1 from 23. June 2015EAC extraction logfile from 21. July 2015, 8:06Manu Delgado / Silver KobaltUsed drive  : PLEXTOR DVDR   PX-891SAW   Adapter: 1  ID: 0Read mode               : SecureUtilize accurate stream : YesDefeat audio cache      : YesMake use of C2 pointers : NoRead offset correction                      : 48Overread into Lead-In and Lead-Out          : NoFill up missing offset samples with silence : YesDelete leading and trailing silent blocks   : NoNull samples used in CRC calculations       : YesUsed interface                              : Native Win32 interface for Win NT & 2000Gap handling                                : Appended to previous trackUsed output format              : User Defined EncoderSelected bitrate                : 1024 kBit/sQuality                         : HighAdd ID3 tag                     : NoCommand line compressor         : C:\Program Files (x86)\Exact Audio Copy\Flac\flac.exeAdditional command line options : -8 -V -T "ARTIST=%artist%" -T "TITLE=%title%" -T "ALBUM=%albumtitle%" -T "DATE=%year%" -T "TRACKNUMBER=%tracknr%" -T "GENRE=%genre%" -T "PERFORMER=%albuminterpret%" -T "COMPOSER=%composer%" %haslyrics%--tag-from-file=LYRICS="%lyricsfile%"%haslyrics% -T "ALBUMARTIST=%albumartist%" -T "DISCNUMBER=%cdnumber%" -T "TOTALDISCS=%totalcds%" -T "TOTALTRACKS=%numtracks%" -T "COMMENT=%comment%" %source% -o %dest%TOC of the extracted CD     Track |   Start  |  Length  | Start sector | End sector    ---------------------------------------------------------        1  |  0:00.00 |  3:56.68 |         0    |    17767        2  |  3:56.68 |  4:35.49 |     17768    |    38441        3  |  8:32.42 |  4:05.71 |     38442    |    56887        4  | 12:38.38 |  6:35.66 |     56888    |    86578        5  | 19:14.29 |  4:54.68 |     86579    |   108696        6  | 24:09.22 |  5:30.28 |    108697    |   133474        7  | 29:39.50 |  4:08.59 |    133475    |   152133        8  | 33:48.34 |  7:05.73 |    152134    |   184081        9  | 40:54.32 |  6:49.16 |    184082    |   214772       10  | 47:43.48 |  6:04.64 |    214773    |   242136       11  | 53:48.37 |  3:50.11 |    242137    |   259397Track  1     Filename C:\Rips\01 - Digustingly Beautiful.wav     Pre-gap length  0:00:02.00     Peak level 98.6 %     Extraction speed 4.4 X     Track quality 100.0 %     Test CRC 144316F3     Copy CRC 144316F3     Track not present in AccurateRip database     Copy OKTrack  2     Filename C:\Rips\02 - Plus Minus.wav     Peak level 98.7 %     Extraction speed 5.1 X     Track quality 100.0 %     Test CRC EF456748     Copy CRC EF456748     Track not present in AccurateRip database     Copy OKTrack  3     Filename C:\Rips\03 - Drumheart.wav     Peak level 98.7 %     Extraction speed 5.5 X     Track quality 100.0 %     Test CRC E0E6BBD5     Copy CRC E0E6BBD5     Track not present in AccurateRip database     Copy OKTrack  4     Filename C:\Rips\04 - Down To The Summit.wav     Peak level 98.7 %     Extraction speed 6.3 X     Track quality 100.0 %     Test CRC EE0CD501     Copy CRC EE0CD501     Track not present in AccurateRip database     Copy OKTrack  5     Filename C:\Rips\05 - Wandering Around.wav     Peak level 98.7 %     Extraction speed 6.6 X     Track quality 100.0 %     Test CRC 696EBEF0     Copy CRC 696EBEF0     Track not present in AccurateRip database     Copy OKTrack  6     Filename C:\Rips\06 - Simon Psychling [sic].wav     Peak level 98.7 %     Extraction speed 7.0 X     Track quality 100.0 %     Test CRC 82C36A06     Copy CRC 82C36A06     Track not present in AccurateRip database     Copy OKTrack  7     Filename C:\Rips\07 - Sun In The North.wav     Peak level 98.7 %     Extraction speed 7.2 X     Track quality 100.0 %     Test CRC 140D63F4     Copy CRC 140D63F4     Track not present in AccurateRip database     Copy OKTrack  8     Filename C:\Rips\08 - Chemical Reaction.wav     Peak level 98.7 %     Extraction speed 8.0 X     Track quality 100.0 %     Test CRC AA6627F9     Copy CRC AA6627F9     Track not present in AccurateRip database     Copy OKTrack  9     Filename C:\Rips\09 - Dearest.wav     Peak level 98.7 %     Extraction speed 8.5 X     Track quality 100.0 %     Test CRC ABBAB266     Copy CRC ABBAB266     Track not present in AccurateRip database     Copy OKTrack 10     Filename C:\Rips\10 - Almost Thirty.wav     Peak level 98.7 %     Extraction speed 6.7 X     Track quality 99.9 %     Test CRC 1D0BA74D     Copy CRC 1D0BA74D     Track not present in AccurateRip database     Copy OKTrack 11     Filename C:\Rips\11 - Grey Hair Man.wav     Peak level 99.8 %     Extraction speed 8.6 X     Track quality 100.0 %     Test CRC E303A4B8     Copy CRC E303A4B8     Track not present in AccurateRip database     Copy OKNone of the tracks are present in the AccurateRip databaseNo errors occurredEnd of status report---- CUETools DB Plugin V2.1.6[CTDB TOCID: 50AA5Z50Y3hf8u6G1BoSGCgBIsw-] disk not present in databaseSubmit result: 50AA5Z50Y3hf8u6G1BoSGCgBIsw- has been uploaded==== Log checksum 103EAA413ED6A8A0F5173281673B7A9EEA738BAD5C6BBCDCB96D5EDC2122A4B6 ====

Содержание индексной карты (.CUE)

REM GENRE ExperimentalREM DATE 2015REM DISCID 820D820BREM COMMENT "ExactAudioCopy v1.1"PERFORMER "Manu Delago"TITLE "Silver Kobalt"FILE "01 - Digustingly Beautiful (feat. Isa Kurz).wav" WAVE  TRACK 01 AUDIO    TITLE "Digustingly Beautiful (feat. Isa Kurz)"    PERFORMER "Manu Delago"    ISRC GBEUE1400172    INDEX 01 00:00:00FILE "02 - Plus Minus.wav" WAVE  TRACK 02 AUDIO    TITLE "Plus Minus"    PERFORMER "Manu Delago"    ISRC GBEUE1400173    INDEX 01 00:00:00FILE "03 - Drumheart (feat. Anil Sebastian).wav" WAVE  TRACK 03 AUDIO    TITLE "Drumheart (feat. Anil Sebastian)"    PERFORMER "Manu Delago"    ISRC GBEUE1400174    INDEX 01 00:00:00FILE "04 - Down to the Summit.wav" WAVE  TRACK 04 AUDIO    TITLE "Down to the Summit"    PERFORMER "Manu Delago"    ISRC GBEUE1400175    INDEX 01 00:00:00FILE "05 - Wandering Around.wav" WAVE  TRACK 05 AUDIO    TITLE "Wandering Around"    PERFORMER "Manu Delago"    ISRC GBEUE1400176    INDEX 01 00:00:00FILE "06 - Simon Is Psychling [sic].wav" WAVE  TRACK 06 AUDIO    TITLE "Simon Is Psychling [sic]"    PERFORMER "Manu Delago"    ISRC GBEUE1400177    INDEX 01 00:00:00FILE "07 - Sun in the North (feat. Isa Kurz).wav" WAVE  TRACK 07 AUDIO    TITLE "Sun in the North (feat. Isa Kurz)"    PERFORMER "Manu Delago"    ISRC GBEUE1400178    INDEX 01 00:00:00FILE "08 - Chemical Reaction (feat. Rahel).wav" WAVE  TRACK 08 AUDIO    TITLE "Chemical Reaction (feat. Rahel)"    PERFORMER "Manu Delago"    ISRC GBEUE1400179    INDEX 01 00:00:00FILE "09 - Dearest (feat. Katie Noonan).wav" WAVE  TRACK 09 AUDIO    TITLE "Dearest (feat. Katie Noonan)"    PERFORMER "Manu Delago"    ISRC GBEUE1400180    INDEX 01 00:00:00FILE "10 - Almost Thirty.wav" WAVE  TRACK 10 AUDIO    TITLE "Almost Thirty"    PERFORMER "Manu Delago"    ISRC GBEUE1400181    INDEX 01 00:00:00FILE "11 - Grey Hair Man (feat. Rahel).wav" WAVE  TRACK 11 AUDIO    TITLE "Grey Hair Man (feat. Rahel)"    PERFORMER "Manu Delago"    INDEX 01 00:00:00

Отчет CUETools

[CUETools log; Date: 11.12.2018 23:43:48; Version: 2.1.6][CTDB TOCID: 50AA5Z50Y3hf8u6G1BoSGCgBIsw-] found.Track | CTDB Status  1   | (4/4) Accurately ripped  2   | (4/4) Accurately ripped  3   | (4/4) Accurately ripped  4   | (4/4) Accurately ripped  5   | (4/4) Accurately ripped  6   | (4/4) Accurately ripped  7   | (4/4) Accurately ripped  8   | (4/4) Accurately ripped  9   | (4/4) Accurately ripped 10   | (4/4) Accurately ripped 11   | (4/4) Accurately ripped[AccurateRip ID: 0016cd65-00c95978-820d820b] found.Track   [  CRC   |   V2   ] Status 01     [a9ef95cd|021227b8] (0+1/1) Accurately ripped 02     [cdb95f25|df7bf094] (0+1/1) Accurately ripped 03     [75083bed|a991c8f1] (0+1/1) Accurately ripped 04     [a7b07381|676059cb] (0+1/1) Accurately ripped 05     [3d9bfef0|7946abd0] (0+1/1) Accurately ripped 06     [95d55c86|64850e76] (0+1/1) Accurately ripped 07     [559c5579|0fbbd277] (0+1/1) Accurately ripped 08     [170567ba|0ad4c582] (0+1/1) Accurately ripped 09     [ee6fa39a|68d2fe96] (0+1/1) Accurately ripped 10     [ca33c3ff|1ac75191] (0+1/1) Accurately ripped 11     [bb6ddc40|81195001] (0+1/1) Accurately rippedTrack Peak [ CRC32  ] [W/O NULL] [  LOG   ] --   99,8 [EAC0590E] [21F67127] 01   98,6 [144316F3] [84779687]   CRC32 02   98,7 [EF456748] [5AEE91F5]   CRC32 03   98,7 [E0E6BBD5] [8EE66036]   CRC32 04   98,7 [EE0CD501] [874A2FA0]   CRC32 05   98,7 [696EBEF0] [AFD76A2B]   CRC32 06   98,7 [82C36A06] [895A5293]   CRC32 07   98,7 [140D63F4] [1C1CB8FF]   CRC32 08   98,7 [AA6627F9] [FF8842B2]   CRC32 09   98,7 [ABBAB266] [84BF58DD]   CRC32 10   98,7 [1D0BA74D] [1584A46F]   CRC32 11   99,8 [E303A4B8] [EE6DC559]   CRC32

Review by Michael Ternai

“Silver Kobalt” is an album of so many beautifully placed sounds that it’s hard not to be left in awe. The new album of the native Tyrolean Hang player and composer captures the listener from the very first tone and offers something exciting and new with each listen. The sounds of the percussionist encapsulate and touch the soul in the gentlest manner, the refined melodies have a very warm note, and the complex arrangements in which he embeds the songs are full of suspense and extremely varied. To add to all of this are the hauntingly soulful vocal performances by guest singers Anil Sebastian, Rahel, Katie Noonan and Isa Kurz, who take you on a rocky ride of constant goosebump flushes.
Stylistically Manu Delago’s songs – recorded with the support of Christof Dienz (bassoon, synthesizer), Chris Norz (beats, percussion) and Isa Kurz (vocals, piano, violin) – move in the fields of artificial pop, delicate and very detailed electronics and occasional chamber music approaches. The lasting impression is above all the careful and insightful manner with which Manu Delago forms the individual parts into a dynamic whole. Surrounded by vast soundscapes with some extended experimental passages in an unprecedented world of new sonic experiences, the entire album develops an immensely dense atmosphere.
If there ever was any evidence needed for the extraordinary musical abilities of this musician: the proof is in the music of Manu Delago’s “Silver Kobalt” – a true masterpiece.

Чтобы скачать этот контент, Вам необходимо:
1. Скачать и установить торрент-клиент [клик для Windows], (для мобильного найдите на Play Маркет).
2. Кликнуть по [Скачать]


Внимание.
Если проверка ВЫ НЕ РОБОТ - не работает, значит Вы используете устаревший браузер.
Установите актуальный браузер и повторно кликните по [Скачать]
Безопасность: торрент-клиент разрешён АВ Касперского.

[asmlocator.ru].t595886.torrent 
Торрент: Зарегистрирован [ 2018-12-11 23:00 ] · 34292E83F4500FFB056B197D8DAAF1CB7D615CEC

Скачать .torrent

Скачать

15 KB

Статус: проверено
Скачан: 0 раз
Размер: 348 MB
terms.php
[Профиль] [ЛС]
Показать сообщения:    
Ответить на тему

Текущее время: 20-Янв 16:19

Часовой пояс: UTC ± 0



Вы не можете начинать темы
Вы не можете отвечать на сообщения
Вы не можете редактировать свои сообщения
Вы не можете удалять свои сообщения
Вы не можете голосовать в опросах
Вы не можете прикреплять файлы к сообщениям
Вы можете скачивать файлы