[TR24][OF][FM] Властелин Колец: Две крепости / The Lord Of The Rings: The Two Towers - The Complete Recordings (Original Motion Picture Soundtrack) (by Howard Shore) (Remastered) - 2006/2018 (Score)

Ответить на тему
Статистика раздачи
Размер:  1.86 GB   |    Зарегистрирован:  1 год 1 месяц   |    Скачан:  2 раза

Полного источника не было: 2 месяца 29 дней

 
   
 
 
Автор Сообщение

star21 ®

Пол: Женский

Стаж: 4 года 2 месяца

Сообщений: 551946

Откуда: Екатеринбург

Создавать темы 10-Дек-2018 19:35

[Цитировать]

Howard Shore - The Lord Of The Rings: The Two Towers - The Complete Recordings Формат записи/Источник записи: [TR24][OF][FM]
Наличие водяных знаков: Нет
Издание: Remastered
Год издания/переиздания диска: 2006/2018
Жанр: Score
Издатель (лейбл): Rhino - Warner Bros.
Продолжительность: 03:08:17
Наличие сканов в содержимом раздачи: Только обложка альбома
Контейнер: FLAC (*.flac)
Тип рипа: tracks
Разрядность: 24/48
Формат: PCM
Количество каналов: 2.0
Источник (релизер): qobuz.com

Треклист:

1. Glamdring (03:49)
2. Elven Rope (02:18)
3. Lost In Emyn Muil (04:14)
4. My Precious (02:56)
5. Uglúk's Warriors (01:41)
6. The Three Hunters (06:12)
7. The Banishment of éomer (03:54)
8. Night Camp (02:50)
9. The Plains Of Rohan (04:14)
10. Fangorn (05:13)
11. The Dead Marshes (05:08)
12. "Wraiths On Wings" (02:07)
13. Gandalf the White (06:47)
14. The Dreams of Trees (01:54)
15. The Heir of Númenor (06:50)
16. Ent-draught (02:55)
17. Edoras (04:33)
18. The Court of Meduseld (03:10)
19. Théoden King / "The Funeral of Théodred" (feat. Miranda Otto) (06:11)
20. The King's Decision (02:07)
21. Exodus From Edoras (05:42)
22. The Forests Of Ithilien (06:37)
23. One of the Dúnedain / "Evenstar" (feat. Isabel Bayrakdarian) (07:13)
24. The Wolves of Isengard (04:22)
25. Refuge At Helm's Deep (04:00)
26. The Voice Of Saruman (01:10)
27. Arwen's Fate / "The Grace of the Valar" (feat. Sheila Chandra) (03:58)
28. The Story Foretold (03:38)
29. Sons Of The Steward (06:03)
30. Rock And Pool (02:54)
31. Faramir's Good Council (02:26)
32. Aragorn's Return (02:10)
33. War Is Upon Us (03:35)
34. "Where Is The Horse And The Rider?" (06:15)
35. The Host Of The Eldar (02:50)
36. The Battle Of The Hornburg (02:52)
37. The Breach Of The Deeping Wall (03:03)
38. The Entmoot Decides (02:06)
39. Retreat / "Haldir's Lament" (feat. Elizabeth Fraser) (04:40)
40. Master Peregrin's Plan (02:31)
41. The Last March of the Ents (feat. Ben Del Maestro) 02:31
42. The Nazgûl Attack (02:45)
43. Théoden Rides Forth (feat. Ben Del Maestro) (05:48)
44. The Tales That Really Matter (12:01)
45. "Long Ways to Go Yet" / "Gollum's Song" (feat. Emiliana Torrini) (08:04)

Лог проверки качества

foobar2000 1.4 / Dynamic Range Meter 1.1.1log date: 2018-12-09 23:52:42--------------------------------------------------------------------------------Analyzed: Howard Shore / The Lord Of The Rings: The Two Towers - The Complete Recordings--------------------------------------------------------------------------------DR         Peak         RMS     Duration Track--------------------------------------------------------------------------------DR7       -0.07 dB   -11.41 dB      3:50 01-GlamdringDR16      -0.86 dB   -24.40 dB      2:19 02-Elven RopeDR13      -0.08 dB   -20.48 dB      4:15 03-Lost In Emyn MuilDR12      -7.42 dB   -26.66 dB      2:57 04-My PreciousDR8       -0.08 dB   -14.11 dB      1:41 05-Ugluk's WarriorsDR10      -0.08 dB   -13.84 dB      6:12 06-The Three HuntersDR9       -0.07 dB   -13.74 dB      3:55 07-The Banishment of EomerDR7       -0.07 dB   -12.15 dB      2:50 08-Night CampDR11      -0.07 dB   -17.08 dB      4:14 09-The Plains Of RohanDR11      -0.07 dB   -14.49 dB      5:14 10-FangornDR12      -0.08 dB   -17.28 dB      5:08 11-The Dead MarshesDR9       -0.07 dB   -12.77 dB      2:08 12-'Wraiths On Wings'DR11      -0.07 dB   -16.94 dB      6:48 13-Gandalf the WhiteDR12      -4.82 dB   -22.07 dB      1:55 14-The Dreams of TreesDR10      -0.07 dB   -15.62 dB      6:50 15-The Heir of NumenorDR11      -0.08 dB   -16.31 dB      2:55 16-Ent-draughtDR13      -0.82 dB   -21.66 dB      4:33 17-EdorasDR10      -0.07 dB   -13.87 dB      3:11 18-The Court of MeduseldDR10      -0.07 dB   -14.80 dB      6:12 19-Theoden King / 'The Funeral of Theodred' (feat. Miranda Otto)DR10      -0.07 dB   -16.47 dB      2:08 20-The King's DecisionDR15      -0.08 dB   -20.40 dB      5:43 21-Exodus From EdorasDR12      -0.08 dB   -17.94 dB      6:37 22-The Forests Of IthilienDR15      -3.76 dB   -23.69 dB      7:14 23-One of the Dunedain / 'Evenstar' (feat. Isabel Bayrakdarian)DR9       -0.07 dB   -11.88 dB      4:23 24-The Wolves of IsengardDR14      -0.94 dB   -20.25 dB      4:00 25-Refuge At Helm's DeepDR11      -0.08 dB   -14.42 dB      1:11 26-The Voice Of SarumanDR13      -8.55 dB   -25.62 dB      3:59 27-Arwen's Fate / 'The Grace of the Valar' (feat. Sheila Chandra)DR11      -7.37 dB   -24.16 dB      3:38 28-The Story ForetoldDR15      -0.09 dB   -20.74 dB      6:03 29-Sons Of The StewardDR12      -1.15 dB   -20.43 dB      2:54 30-Rock And PoolDR11     -10.48 dB   -26.64 dB      2:27 31-Faramir's Good CouncilDR11      -0.10 dB   -16.60 dB      2:11 32-Aragorn's ReturnDR12      -0.43 dB   -20.11 dB      3:36 33-War Is Upon UsDR13      -2.97 dB   -21.30 dB      6:16 34-'Where Is The Horse And The Rider?'DR11      -3.98 dB   -21.73 dB      2:51 35-The Host Of The EldarDR11      -0.10 dB   -13.60 dB      2:53 36-The Battle Of The HornburgDR11      -0.08 dB   -14.06 dB      3:03 37-The Breach Of The Deeping WallDR10     -11.70 dB   -29.39 dB      2:07 38-The Entmoot DecidesDR11      -0.07 dB   -14.16 dB      4:41 39-Retreat / 'Haldir's Lament' (feat. Elizabeth Fraser)DR12      -7.69 dB   -24.67 dB      2:32 40-Master Peregrin's PlanDR13      -3.34 dB   -21.94 dB      2:31 41-The Last March of the Ents (feat. Ben Del Maestro)DR13      -0.39 dB   -19.03 dB      2:45 42-The Nazgul AttackDR10      -0.08 dB   -12.63 dB      5:48 43-Theoden Rides Forth (feat. Ben Del Maestro)DR15      -0.08 dB   -20.55 dB     12:01 44-The Tales That Really MatterDR13      -0.08 dB   -18.60 dB      8:05 45-'Long Ways to Go Yet' / 'Gollum's Song' (feat. Emiliana Torrini)--------------------------------------------------------------------------------Number of tracks:  45Official DR value: DR11Samplerate:        48000 HzChannels:          2Bits per sample:   24Bitrate:           1449 kbpsCodec:             FLAC================================================================================

Об альбоме (сборнике)

Howard Shore’s themes for Peter Jackson’s Lord of the Rings trilogy are often considered as some of the greatest accomplishments in the history of movie soundtracks. By virtue of its operatic length, first: just for this second volume (available here in its entirety), the listener can enjoy this music for more than three hours!
But first and foremost, we have to highlight here the extremely rich and inventive artistic performance of the composer of the movies of David Cronenberg, as well as Ed Wood, After Hours and Mrs.
Doubtfire. For this second episode released in 2002 (called The Two Towers), the Canadian composer reuses here and there the epic and moving themes from the first volume, by injecting into them more darkness and ambiguity, as proven by the opening track (Glamdring, with Maori choruses), as well as tracks associated to Gollum that skillfully blend shadow and light (My Precious).
This soundtrack is also filled with new themes like the one, epic and majestic, devoted to the Rohirrim, the riders of Middle-earth (The Plains of Rohan). But Shore’s score wouldn’t be complete without this Celtic flavor that the composer scatters with subtlety throughout this titanic partition—thus reminding that one of the influences of Tolkien, the author of the novels, was Irish mythology.
Dermot Crehan (violin) and the great flutist James Galway (tin and low whistle) are usually responsible for bringing to this score this particular color (Edoras ; Ent-draught). In this regard, it is worth noting the impressive number of soloists inside Shore’s partition, something quite rare for a so-called “symphonic” partition.
Naturally, throughout his work, the composer endeavors to respect to the letter the narrative and visual world of Tolkien and Jackson, thus intending it for the fans of the saga.
But this rich and subtle original soundtrack proves in a blatant way that Howard Shore also wanted to speak to the heart of every music lover, whether they knew Tolkien’s fantastical world or not.

Чтобы скачать этот контент, Вам необходимо:
1. Скачать и установить торрент-клиент [клик для Windows], (для мобильного найдите на Play Маркет).
2. Кликнуть по [Скачать]


Внимание.
Если проверка ВЫ НЕ РОБОТ - не работает, значит Вы используете устаревший браузер.
Установите актуальный браузер и повторно кликните по [Скачать]
Безопасность: торрент-клиент разрешён АВ Касперского.

[asmlocator.ru].t595555.torrent 
Торрент: Зарегистрирован [ 2018-12-10 19:35 ] · 8D6398EFF8C6A5068D640045B3EDDCA81BD35E82

Скачать .torrent

Скачать

22 KB

Статус: проверено
Скачан: 2 раз
Размер: 1.86 GB
terms.php
[Профиль] [ЛС]
Показать сообщения:    
Ответить на тему

Текущее время: 18-Янв 18:40

Часовой пояс: UTC ± 0



Вы не можете начинать темы
Вы не можете отвечать на сообщения
Вы не можете редактировать свои сообщения
Вы не можете удалять свои сообщения
Вы не можете голосовать в опросах
Вы не можете прикреплять файлы к сообщениям
Вы можете скачивать файлы
Верим фактам, а не вранью Путина! Факт, что Правительство ведёт Россию к истреблению.
Так как численность населения падает, даже не смотря на приток эмигрантов!
Русская нация вымирает и вырождается, смешиваясь с эмигрантами!
Факт, что военных и граждан предприятий заставляют голосовать за партию Единая Россия и Путина
ПОД СТРАХОМ УВОЛЬНЕНИЯ!
Нам не нужно Правительство, блокирующее личную жизнь, интернет, нарушающее сохранность данных.
Все эти действия финансируются за счёт народа!