[TR24][OF] Hilyard - Furthermore - 2018 (Dark Ambient)

Ответить на тему
Статистика раздачи
Размер:  453 MB   |    Зарегистрирован:  3 дня   |    Скачан:  0 раз

Полного источника не было: Никогда

 
   
 
 
Автор Сообщение

star21 ®

Пол: Женский

Стаж: 3 года 1 месяц

Сообщений: 552880

Откуда: Екатеринбург

Создавать темы 06-Дек-2018 16:40

[Цитировать]

Hilyard
Furthermore


• Формат записи | Источник записи: [TR24][OF]
• Наличие водяных знаков: Нет
• Страна-производитель релиза: USA (Oregon)
• Год издания релиза: 2018
• Жанр: Dark Ambient
• Издатель (лейбл): Cryo Chamber
• Продолжительность: 00:53:37
• Источник, релизер: NTDMMANIAC ®
• WEB релиз: bandcamp
• Контейнер: FLAC (*.flac)
• Тип рипа: tracks
• Разрядность: 24/44,1
• Формат: WAV (flac.ape.wv)
• Количество каналов: 2.0
• Наличие сканов: front 01 - Furthermore (00:14:00)
02 - Airflows and Airlocks (00:12:10)
03 - Swimming with Giants (00:10:30)
04 - Empty Sectors (00:08:24)
05 - Inverted Horizon (00:08:33)

• Замер динамического диапазона •

foobar2000 1.2.5 / Замер динамического диапазона (DR) 1.1.1Дата отчёта:  2018-12-05 19:27:26--------------------------------------------------------------------------------Анализ:   Hilyard / Furthermore--------------------------------------------------------------------------------DR         Пики         RMS           Продолжительность трека--------------------------------------------------------------------------------DR8       -1.25 дБ   -11.89 дБ     14:00 01-FurthermoreDR7       -1.25 дБ   -12.82 дБ     12:10 02-Airflows and AirlocksDR8       -1.25 дБ   -12.64 дБ     10:30 03-Swimming with GiantsDR10      -1.25 дБ   -13.71 дБ      8:24 04-Empty SectorsDR9       -1.25 дБ   -13.58 дБ      8:34 05-Inverted Horizon--------------------------------------------------------------------------------Количество треков: 5Реальные значения DR: DR8Частота:  44100 ГцКаналов:  2Разрядность:   24Битрейт:  1166 кбит/сКодек:   FLAC================================================================================

• Information •


Hilyard brings his first solo album to Cryo Chamber with Furthermore. A deep space adventure that lets you float in zero-G and gaze upon the anomalies of the universe.Escape from a tired and dying world into the realms beyond quasars. Journey in isolation through thick dark matter in search of answers. Drift in quiet melancholy, past the failed floating structures, gas giants and furthermore, into an endless horizon.Sweeping electronic drones combine with analogue bass to create a multilayered space ambient album that is emotionally captivating and enlightening.released November 20, 2018Written, Produced, Performed - Bryan Hilyard
Artwork & Mastering - Simon Heath

Для скачки контента: [Установить программу-клиент] и кликнуть по - СкачатьБезопасность: клиент проверен АВ Касперского

[asmlocator.ru].t594112.torrent 
Торрент: Зарегистрирован [ 2018-12-06 16:40 ] · 3AC86DBC935DE4093BF97B62F661548D46B7E0BE

Скачать .torrent

Скачать

18 KB

Статус: проверено
Скачан: 0 раз
Размер: 453 MB
terms.php
[Профиль] [ЛС]
Показать сообщения:    
Ответить на тему

Текущее время: 10-Дек 09:49

Часовой пояс: UTC ± 0



Вы не можете начинать темы
Вы не можете отвечать на сообщения
Вы не можете редактировать свои сообщения
Вы не можете удалять свои сообщения
Вы не можете голосовать в опросах
Вы не можете прикреплять файлы к сообщениям
Вы можете скачивать файлы