(Nu Jazz, Electronic, Fusion) Goran Kajfes - Headspin - 2004, FLAC (tracks+.cue), lossless

Ответить на тему
Статистика раздачи
Размер:  289 MB   |    Зарегистрирован:  3 дня   |    Скачан:  0 раз

Полного источника не было: Никогда

 
   
 
 
Автор Сообщение

star21 ®

Пол: Женский

Стаж: 3 года 1 месяц

Сообщений: 552880

Откуда: Екатеринбург

Создавать темы 06-Дек-2018 16:40

[Цитировать]

Goran Kajfes / Headspin Жанр: Nu Jazz, Electronic, Fusion
Страна-производитель диска (релиза): Sweden
Год издания: 2004
Издатель (лейбл): Amigo
Номер по каталогу: AMCD 899
Страна исполнителя (группы): Sweden
Аудиокодек: FLAC (*.flac)
Тип рипа: tracks+.cue
Битрейт аудио: lossless
Продолжительность: 00:48:45
Источник (релизер): thx artmuss
Наличие сканов в содержимом раздачи: нетТреклист:
1. Zagreb (7:44)
2. The Man With the Golden Arm (5:46)
3. Futi (8:08)
4. Headspin (7:45)
5. Nuclear War (6:55)
6. Tremblin' (4:36)
7. Pulaski Bridge (7:52)

Лог создания рипа

EAC extraction logfile from 8. January 2008, 22:27 for CDGoran Kajfeš / HeadspinUsed drive  : SlimtypeCOMBO LSC-24082K   Adapter: 1  ID: 0Read mode   : Secure with NO C2, accurate stream, disable cacheRead offset correction : 6Overread into Lead-In and Lead-Out : NoUsed output format : D:\Tobias\Backup\Exact Audio Copy\flac.exe   (User Defined Encoder)                     192 kBit/s                     Additional command line options : -V -8 -T "artist=%a" -T "title=%t" -T "album=%g" -T "date=%y" -T "tracknumber=%n" -T "genre=%m" %sOther options      :    Fill up missing offset samples with silence : Yes    Delete leading and trailing silent blocks : No    Installed external ASPI interfaceTrack  1     Filename D:\Tobias\FLAC\Goran Kajfeš - Headspin\01 - Goran Kajfeš - Zagreb.wav     Pre-gap length  0:00:02.00     Peak level 98.9 %     Track quality 99.9 %     Test CRC 0A90FA4B     Copy CRC 0A90FA4B     Copy OKTrack  2     Filename D:\Tobias\FLAC\Goran Kajfeš - Headspin\02 - Goran Kajfeš - The Man With The Golden Arm.wav     Pre-gap length  0:00:00.02     Peak level 98.9 %     Track quality 100.0 %     Test CRC 66D3AF8D     Copy CRC 66D3AF8D     Copy OKTrack  3     Filename D:\Tobias\FLAC\Goran Kajfeš - Headspin\03 - Goran Kajfeš - Futi.wav     Pre-gap length  0:00:00.18     Peak level 98.8 %     Track quality 100.0 %     Test CRC 1192A781     Copy CRC 1192A781     Copy OKTrack  4     Filename D:\Tobias\FLAC\Goran Kajfeš - Headspin\04 - Goran Kajfeš - Headspin.wav     Peak level 97.7 %     Track quality 99.9 %     Test CRC ED6EBCB5     Copy CRC ED6EBCB5     Copy OKTrack  5     Filename D:\Tobias\FLAC\Goran Kajfeš - Headspin\05 - Goran Kajfeš - Nuclear War.wav     Peak level 98.9 %     Track quality 99.9 %     Test CRC A5795669     Copy CRC A5795669     Copy OKTrack  6     Filename D:\Tobias\FLAC\Goran Kajfeš - Headspin\06 - Goran Kajfeš - Tremblin'.wav     Peak level 97.7 %     Track quality 100.0 %     Test CRC D40F4E22     Copy CRC D40F4E22     Copy OKTrack  7     Filename D:\Tobias\FLAC\Goran Kajfeš - Headspin\07 - Goran Kajfeš - Pulaski Bridge.wav     Peak level 98.9 %     Track quality 99.9 %     Test CRC 921D75F7     Copy CRC 921D75F7     Copy OKNo errors occuredEnd of status report

Содержание индексной карты (.CUE)

REM GENRE JazzREM DATE 2004REM DISCID 500B6F07REM COMMENT "ExactAudioCopy v0.95b4"PERFORMER "Goran Kajfeš"TITLE "Headspin"FILE "01 - Goran Kajfeš - Zagreb.wav" WAVE  TRACK 01 AUDIO    TITLE "Zagreb"    PERFORMER "Goran Kajfeš"    INDEX 01 00:00:00FILE "02 - Goran Kajfeš - The Man With The Golden Arm.wav" WAVE  TRACK 02 AUDIO    TITLE "The Man With The Golden Arm"    PERFORMER "Goran Kajfeš"    INDEX 01 00:00:00  TRACK 03 AUDIO    TITLE "Futi"    PERFORMER "Goran Kajfeš"    INDEX 00 05:45:40FILE "03 - Goran Kajfeš - Futi.wav" WAVE    INDEX 01 00:00:00FILE "04 - Goran Kajfeš - Headspin.wav" WAVE  TRACK 04 AUDIO    TITLE "Headspin"    PERFORMER "Goran Kajfeš"    INDEX 01 00:00:00FILE "05 - Goran Kajfeš - Nuclear War.wav" WAVE  TRACK 05 AUDIO    TITLE "Nuclear War"    PERFORMER "Goran Kajfeš"    INDEX 01 00:00:00FILE "06 - Goran Kajfeš - Tremblin'.wav" WAVE  TRACK 06 AUDIO    TITLE "Tremblin'"    PERFORMER "Goran Kajfeš"    INDEX 01 00:00:00FILE "07 - Goran Kajfeš - Pulaski Bridge.wav" WAVE  TRACK 07 AUDIO    TITLE "Pulaski Bridge"    PERFORMER "Goran Kajfeš"    INDEX 01 00:00:00

Лог проверки качества

AUDIOCHECKER v2.0 beta (build 457) - by Dester - opdester@freemail.hu~~~~~~~~~~~~~~~~~~~~~~~~~~~~~~~~~~-=== DO NOT EDIT THIS FILE! ===-Path: ...\Goran Kajfeš - Headspin (2004)1 -=- 01 - Goran Kajfeš - Zagreb.flac -=- CDDA (100%)2 -=- 02 - Goran Kajfeš - The Man With The Golden Arm.flac -=- CDDA (100%)3 -=- 03 - Goran Kajfeš - Futi.flac -=- CDDA (100%)4 -=- 04 - Goran Kajfeš - Headspin.flac -=- CDDA (99%)5 -=- 05 - Goran Kajfeš - Nuclear War.flac -=- CDDA (100%)6 -=- 06 - Goran Kajfeš - Tremblin'.flac -=- CDDA (100%)7 -=- 07 - Goran Kajfeš - Pulaski Bridge.flac -=- CDDA (100%)Summary 99,86% CDDA78408996

Об исполнителе (группе)

http://gorankajfes.com/
https://sv.wikipedia.org/wiki/Goran_Kajfe%C5%A1

Об альбоме (сборнике)

https://www.discogs.com/Goran-Kajfe%C5%A1-Headspin/release/2440530

Состав

Goran Kajfes - trumpet, keyboards, percussion, bass
Per « Texas » Johansson - bass clarinet, tenor sax
Per « Ruskträsk » Johansson - alto & baritone sax, alto flute
Jesper Nordenström - keyboards
Johan Berthing, Peter Fross - bass
David Österberg - electronics
Mattias Torell - guitars
Mattias Ståhl - vibraphone
ADL and Timbuktu - vocals
Jonas Kulhammar - tenor sax
Janne Robertson, Christer Björklund - drums
Davor Kajfes - accordion

Для скачки контента: [Установить программу-клиент] и кликнуть по - СкачатьБезопасность: клиент проверен АВ Касперского

[asmlocator.ru].t594108.torrent 
Торрент: Зарегистрирован [ 2018-12-06 16:40 ] · 19ECF9B77A12FC57CBE6DD7452A53F1673AADEE2

Скачать .torrent

Скачать

12 KB

Статус: проверено
Скачан: 0 раз
Размер: 289 MB
terms.php
[Профиль] [ЛС]
Показать сообщения:    
Ответить на тему

Текущее время: 10-Дек 09:50

Часовой пояс: UTC ± 0



Вы не можете начинать темы
Вы не можете отвечать на сообщения
Вы не можете редактировать свои сообщения
Вы не можете удалять свои сообщения
Вы не можете голосовать в опросах
Вы не можете прикреплять файлы к сообщениям
Вы можете скачивать файлы