(Art Rock, Experimental, Prog Rock, Symphonic Rock) [MC] [24/48] Anderson Bruford Wakeman Howe - Anderson Bruford Wakeman Howe [Yes] - 1989, FLAC (image+.cue)

Ответить на тему
Статистика раздачи
Размер:  730 MB   |    Зарегистрирован:  3 дня   |    Скачан:  0 раз

Полного источника не было: Никогда

 
   
 
 
Автор Сообщение

star21 ®

Пол: Женский

Стаж: 3 года 1 месяц

Сообщений: 552880

Откуда: Екатеринбург

Создавать темы 06-Дек-2018 16:40

[Цитировать]

Anderson Bruford Wakeman Howe - Anderson Bruford Wakeman Howe [ Yes] Жанр: Art Rock, Experimental, Prog Rock, Symphonic Rock
Носитель: MC
Год выпуска: 1989
Лейбл: Arista 409 970
Страна-производитель: Германия
Аудио кодек: FLAC
Тип рипа: image+.cue
Формат записи: 24/48
Формат раздачи: 24/48
Продолжительность: 00:59:16
Треклист:01-Themes
02-Fist of Fire
03-Brother of Mine
04-Birthright
05-The Meeting
06-Quartet
07-Teakbois
08-Order of the Universe
09-Lets PretendИсточник оцифровки: автором раздачи
Код класса состояния MC: Ex
Устройство воспроизведения: Technics RS-TR 373
Предварительный усилитель: Yamaha A-500
АЦП: Lexicon Alpha
Программа-оцифровщик: Audacity [Ubuntu]
Обработка: Без обработки

Спектр/АЧХ/Уровень записи/ФотоСканы

Доп. информация:

Внутрее Куе

REM GENRE "Art Rock, Experimental, Prog Rock, Symphonic Rock"
REM DATE "1989"
PERFORMER "Anderson Bruford Wakeman Howe"
TITLE "Anderson Bruford Wakeman Howe"
REM COMMENT "From Cassette"
REM COUNTRY "Germany"
FILE "Anderson Bruford Wakeman Howe - Anderson Bruford Wakeman Howe.flac" WAVE
REM LABEL "Arista"
REM LABELNUMBER "409 970"TRACK 01 AUDIO
TITLE "Themes"
PERFORMER "Anderson Bruford Wakeman Howe"
INDEX 01 00:00:00TRACK 02 AUDIO
TITLE "Fist of Fire"
PERFORMER "Anderson Bruford Wakeman Howe"
INDEX 01 05:58:00TRACK 03 AUDIO
TITLE "Brother of Mine"
PERFORMER "Anderson Bruford Wakeman Howe"
INDEX 01 09:27:00TRACK 04 AUDIO
TITLE "Birthright"
PERFORMER "Anderson Bruford Wakeman Howe"
INDEX 01 19:50:00TRACK 05 AUDIO
TITLE "The Meeting"
PERFORMER "Anderson Bruford Wakeman Howe"
INDEX 01 25:57:00TRACK 06 AUDIO
TITLE "Quartet"
PERFORMER "Anderson Bruford Wakeman Howe"
INDEX 01 30:15:00TRACK 07 AUDIO
TITLE "Teakbois"
PERFORMER "Anderson Bruford Wakeman Howe"
INDEX 01 39:37:00TRACK 08 AUDIO
TITLE "Order of the Universe"
PERFORMER "Anderson Bruford Wakeman Howe"
INDEX 01 47:18:00TRACK 09 AUDIO
TITLE "Lets Pretend"
PERFORMER "Anderson Bruford Wakeman Howe"
INDEX 01 55:58:00
Все MC :::::: Все VHS

Для скачки контента: [Установить программу-клиент] и кликнуть по - СкачатьБезопасность: клиент проверен АВ Касперского

[asmlocator.ru].t594103.torrent 
Торрент: Зарегистрирован [ 2018-12-06 16:40 ] · 41174CF945319390C3CE122ED362D709DD8AFEBF

Скачать .torrent

Скачать

29 KB

Статус: проверено
Скачан: 0 раз
Размер: 730 MB
terms.php
[Профиль] [ЛС]
Показать сообщения:    
Ответить на тему

Текущее время: 10-Дек 09:49

Часовой пояс: UTC ± 0



Вы не можете начинать темы
Вы не можете отвечать на сообщения
Вы не можете редактировать свои сообщения
Вы не можете удалять свои сообщения
Вы не можете голосовать в опросах
Вы не можете прикреплять файлы к сообщениям
Вы можете скачивать файлы