Белая ворона / Бiла ворона / Le corbeau blanc (Анатолий Лавренишин) [2011, Украина, Франция, авторская анимация, WEBRip-AVC]

Ответить на тему
Статистика раздачи
Размер:  97 MB   |    Зарегистрирован:  3 дня   |    Скачан:  0 раз

Полного источника не было: Никогда

 
   
 
 
Автор Сообщение

star21 ®

Пол: Женский

Стаж: 3 года 1 месяц

Сообщений: 552880

Откуда: Екатеринбург

Создавать темы 06-Дек-2018 16:40

[Цитировать]

Белая ворона / Бiла ворона / Le corbeau blanc Страна: Украина, Франция
Жанр: авторская анимация
Год выпуска: 2011
Продолжительность: 00:10:00
Перевод: Не требуется
Субтитры: нетРежиссёр: Анатолий ЛавренишинМузыка: группа "DagaDana"Описание: Притча о цене мечты.Качество видео: WEBRip-AVC
Формат видео: MP4Видео: 1220 kbps, 1280х720 (16:9), 25.000 fps, AVC (High@L3.1)
Аудио: 126 kbps, 44.1 kHz, 2 channels, AAC (LC)

MediaInfo

GeneralComplete name                            : Бiла Ворона (2011).mp4Format                                   : MPEG-4Format profile                           : Base Media / Version 2Codec ID                                 : mp42File size                                : 96.6 MiBDuration                                 : 10mn 0sOverall bit rate mode                    : VariableOverall bit rate                         : 1 350 KbpsEncoded date                             : UTC 2016-08-25 20:33:02Tagged date                              : UTC 2016-08-25 20:33:02gsst                                     : 0gstd                                     : 600305VideoID                                       : 1Format                                   : AVCFormat/Info                              : Advanced Video CodecFormat profile                           : Main@L3.1Format settings, CABAC                   : YesFormat settings, ReFrames                : 3 framesCodec ID                                 : avc1Codec ID/Info                            : Advanced Video CodingDuration                                 : 10mn 0sDuration_LastFrame                       : -39msBit rate                                 : 1 220 KbpsWidth                                    : 1 280 pixelsHeight                                   : 720 pixelsDisplay aspect ratio                     : 16:9Frame rate mode                          : ConstantFrame rate                               : 25.000 fpsColor space                              : YUVChroma subsampling                       : 4:2:0Bit depth                                : 8 bitsScan type                                : ProgressiveBits/(Pixel*Frame)                       : 0.053Stream size                              : 87.3 MiB (90%)Title                                    : ISO Media file produced by Google Inc.Encoded date                             : UTC 2016-08-25 20:33:02Tagged date                              : UTC 2016-08-25 20:33:02AudioID                                       : 2Format                                   : AACFormat/Info                              : Advanced Audio CodecFormat profile                           : LCCodec ID                                 : 40Duration                                 : 10mn 0sBit rate mode                            : VariableBit rate                                 : 126 KbpsChannel(s)                               : 2 channelsChannel positions                        : Front: L RSampling rate                            : 44.1 KHzCompression mode                         : LossyStream size                              : 8.99 MiB (9%)Title                                    : ISO Media file produced by Google Inc.Encoded date                             : UTC 2016-08-25 20:33:02Tagged date                              : UTC 2016-08-25 20:33:02

Скриншот c названием фильма

Скриншоты


Для скачки контента: [Установить программу-клиент] и кликнуть по - СкачатьБезопасность: клиент проверен АВ Касперского

[asmlocator.ru].t594069.torrent 
Торрент: Зарегистрирован [ 2018-12-06 16:40 ] · 192FE92A59E708907FB35F26FE1C3C14ADF2BED0

Скачать .torrent

Скачать

16 KB

Статус: проверено
Скачан: 0 раз
Размер: 97 MB
terms.php
[Профиль] [ЛС]
Показать сообщения:    
Ответить на тему

Текущее время: 10-Дек 09:49

Часовой пояс: UTC ± 0



Вы не можете начинать темы
Вы не можете отвечать на сообщения
Вы не можете редактировать свои сообщения
Вы не можете удалять свои сообщения
Вы не можете голосовать в опросах
Вы не можете прикреплять файлы к сообщениям
Вы можете скачивать файлы