[TR24][OF] Palomo - Sinfonia Cordoba - Castile and Leon Symphony Orchestra, Jesus Lopez Cobos - 2018 (Classical)

Ответить на тему
Статистика раздачи
Размер:  860 MB   |    Зарегистрирован:  3 дня   |    Скачан:  0 раз

Полного источника не было: Никогда

 
   
 
 
Автор Сообщение

star21 ®

Пол: Женский

Стаж: 3 года 1 месяц

Сообщений: 552880

Откуда: Екатеринбург

Создавать темы 06-Дек-2018 12:30

[Цитировать]

Castile and Leon Symphony Orchestra, Jesus Lopez Cobos / Palomo - Sinfonia Cordoba Формат записи/Источник записи: [TR24][OF]
Наличие водяных знаков: Нет
Год издания/переиздания диска: 2018
Жанр: Classical
Издатель (лейбл): Naxos
Продолжительность: 00:57:56
Наличие сканов в содержимом раздачи: Буклет PDFТреклист:
Palomo: Sinfonía Córdoba 33:03
I. Paseo a la Mezquita 17:06
II. Nocturno en la ribera 6:35
III. Los patios en el mes de mayo 9:22Palomo: Fulgores 24:58Castilla y León Symphony Orchestra
Jesús López Cobos
Pablo García López (tenor), Javier Riba (guitar)
Recorded: 14-19 May 2016
Recording Venue: Auditorium Miguel Delibes, Valladolid, SpainКонтейнер: FLAC (*.flac)
Тип рипа: tracksРазрядность: 24/96
Формат: PCM
Количество каналов: 2.0

BackCover

Лог проверки качества

foobar2000 1.4 / Dynamic Range Meter 1.1.1log date: 2018-12-06 17:47:16--------------------------------------------------------------------------------Analyzed: Jesús López-Cobos, Castilla y León Symphony Orchestra / Palomo: Sinfonía Córdoba & Fulgores--------------------------------------------------------------------------------DR         Peak         RMS     Duration Track--------------------------------------------------------------------------------DR16      -0.10 dB   -23.65 dB     17:06 01-Sinfonía Córdoba: I. Paseo a la MezquitaDR13      -8.45 dB   -32.15 dB      6:35 02-Sinfonía Córdoba: II. Nocturno en la riberaDR15      -1.89 dB   -23.88 dB      9:20 03-Sinfonía Córdoba: III. Los patios en el mes de mayoDR19      -0.10 dB   -27.68 dB     24:55 04-Fulgores--------------------------------------------------------------------------------Number of tracks:  4Official DR value: DR16Samplerate:        96000 HzChannels:          2Bits per sample:   24Bitrate:           2147 kbpsCodec:             FLAC================================================================================
Источник (релизер): https://www.prestomusic.com/classical/products/8399924--lorenzo-palomo-sinfonia-cordoba#related
Оркестр: Castile and León Symphony Orchestra
Композитор: Lorenzo Palomo
Дирижер: Jesús López Cobos

Для скачки контента: [Установить программу-клиент] и кликнуть по - СкачатьБезопасность: клиент проверен АВ Касперского

[asmlocator.ru].t594031.torrent 
Торрент: Зарегистрирован [ 2018-12-06 12:30 ] · 832EFC21E261FBA61F1DA1248264AA46423B8AE6

Скачать .torrent

Скачать

35 KB

Статус: проверено
Скачан: 0 раз
Размер: 860 MB
terms.php
[Профиль] [ЛС]
Показать сообщения:    
Ответить на тему

Текущее время: 10-Дек 09:48

Часовой пояс: UTC ± 0



Вы не можете начинать темы
Вы не можете отвечать на сообщения
Вы не можете редактировать свои сообщения
Вы не можете удалять свои сообщения
Вы не можете голосовать в опросах
Вы не можете прикреплять файлы к сообщениям
Вы можете скачивать файлы