Весёлые фантазии / Веселые и беззаботные / Fun and Fancy Free (Джек Кинни / Jack Kinney, Гамильтон Ласки / Hamilton Luske) [1947, США, мультфильм, мюзикл, семейны, BDRemux 1080p] DUB + 3xMVO + DVO + AVO (Живов) + VO + Original (Eng) + SUB (eng)

Ответить на тему
Статистика раздачи
Размер:  16,36 GB   |    Зарегистрирован:  3 дня   |    Скачан:  0 раз

Полного источника не было: Никогда

 
   
 
 
Автор Сообщение

star21 ®

Пол: Женский

Стаж: 3 года 1 месяц

Сообщений: 552880

Откуда: Екатеринбург

Создавать темы 06-Дек-2018 12:30

[Цитировать]

Весёлые фантазии : Fun and Fancy Free«It's Got That DISNEY MAGIC!» Год выпуска: 1947
Страна: США
Жанр: мультфильм, мюзикл, фэнтези, мелодрама, комедия, приключения, семейный
Продолжительность: 01:12:48
Перевод:
Профессиональный (Дублированный) - Невафильм, 2005г.
Профессиональный (Многоголосый закадровый) - Selena International СТС
Профессиональный (Многоголосый закадровый) - ИДДК
Профессиональный (Многоголосый закадровый)
Профессиональный (Двухголосый закадровый) - Мьюзик-трейд
Авторский (Одноголосый закадровый) - Ю. Живов
Одноголосый закадровый - женский
русские субтитры: нетРежиссёр: Джек Кинни / Jack Kinney, Гамильтон Ласки / Hamilton LuskeРоли озвучивали: Эдгар Берген, Дина Шор, Чарли МакКарти, Мортимер Снерд, Луана Паттен, Donald Duck, Mickey Mouse, Jiminy Cricket, Анита Гордон, Клифф ЭдвардсРоли дублировали: Александр Машанов, Андрей Кузнецов, Виктор Костецкий, Виктория Панкратова, Геннадий БогачёвОписание: Полнометражный анимационный шедевр, очаровывающий и невероятно интересный своей историей создания. Это последний мультипликационный фильм, где слышен голос великолепного сказочника Уолта Диснея, озвучившего символа студии – Микки Мауса, и единственный фильм, где встречаются все четыре главных персонажа студии: великолепный Микки Маус, ворчливый Дональд Дак, забавный Гуфи и мудрый рассказчик Сверчок Джимини. Следуя классической традиции студии Диснея, мультипликаторы создали увлекательную историю «Бонго» про циркового медведя, мечтающего убежать из цирка, и жить в лесу вместе со своими друзьями и возлюбленной. А также предложили свою версию известной сказки «Джек и Бобовый Росток» – «Микки и Бобовый Росток». Две чудесные истории появились на свет, благодаря рассказчику Сверчку Джимини и мастерству работников студии, сумевших создать незабываемые персонажи, наполнить картину прекрасной музыкой и невероятными приключениями. [imdb]http://www.imdb.com/title/tt0039404[/imdb] релиз: - Большое спасибо xfiles за многоголоску от Selena International СТС
- Большое спасибо GVR232 за авторский одноголосий перевод Ю. Живова и работу с дорогой DTS MA
- Большое спасибо karlll за одноголоску женского голоса
- За работу со звуком большое спасибо *Sergeant_am*
- Работа с BDRemux'ом -Azureus-Качество: BDRemux 1080p
Формат: MKV
Видео: 1920x1080, MPEG-4 AVC Video / 23987 kbps / 1080p / 23.976 fps / 16:9 / High Profile 4.1
Аудио 1: [RUS] 48 kHz, AC3 Dolby Digital, 2/0 (L,R) ch, ~224 kbps - DUB (Невафильм, 2005г.)
Аудио 2: [RUS] 48 kHz, AC3 Dolby Digital, 2/0 (L,R) ch, ~192 kbps - MVO (Selena International СТС)
Аудио 3: [RUS] 48 kHz, AC3 Dolby Digital, 2/0 (L,R) ch, ~192 kbps - MVO (ИДДК)
Аудио 4: [RUS] 48 kHz, AC3 Dolby Digital, 2/0 (L,R) ch, ~192 kbps - MVO
Аудио 5: [RUS] 48 kHz, AC3 Dolby Digital, 2/0 (L,R) ch, ~192 kbps - DVO (Мьюзик-трейд)
Аудио 6: [RUS] DTS-HD Master Audio English 5.1 / 48 kHz / 3570 kbps / 24-bit (DTS Core: 5.1 / 48 kHz / 1509 kbps / 24-bit) - AVO (Ю. Живов)
Аудио 7: [RUS] 48 kHz, AC3 Dolby Digital, 2/0 (L,R) ch, ~192 kbps - VO (женский)
Аудио 8: [ENG] DTS-HD Master Audio English 5.1 / 48 kHz / 3531 kbps / 24-bit (DTS Core: 5.1 / 48 kHz / 1509 kbps / 24-bit)
субтитры: английские
навигация по главам: 24 главы (не именные)

MI

Общее
Уникальный идентификатор : 288006978276447833983866147352937083119 (0xD8AC20597D72A76F6A533AD99591B0EF)
Полное имя : D:\Fun and Fancy Free BD\Fun and Fancy Free.1947.BDRemux 1080p.mkv
Формат : Matroska
Версия формата : Version 4 / Version 2
Размер файла : 16,4 Гбайт
Продолжительность : 1 ч. 12 м.
Режим общего битрейта : Переменный
Общий поток : 32,2 Мбит/сек
Название фильма : Fun and Fancy Free.1947.BDRemux 1080p -Azureus-
Дата кодирования : UTC 2018-12-06 08:07:16
Программа кодирования : mkvmerge v29.0.0 ('Like It Or Not') 64-bit
Библиотека кодирования : libebml v1.3.6 + libmatroska v1.4.9Видео
Идентификатор : 1
Формат : AVC
Формат/Информация : Advanced Video Codec
Профиль формата : High@L4.1
Настройки формата : CABAC / 4 Ref Frames
Параметр CABAC формата : Да
Параметр RefFrames формата : 4 кадра
Идентификатор кодека : V_MPEG4/ISO/AVC
Продолжительность : 1 ч. 12 м.
Вид битрейта : Переменный
Битрейт : 23,9 Мбит/сек
Максимальный битрейт : 38,0 Мбит/сек
Ширина : 1920 пикселей
Высота : 1080 пикселей
Соотношение сторон : 16:9
Режим частоты кадров : Постоянный
Частота кадров : 23,976 (24000/1001) кадра/сек
Цветовое пространство : YUV
Субдискретизация насыщенности : 4:2:0
Битовая глубина : 8 бит
Тип развёртки : Прогрессивная
Бит/(Пиксели*Кадры) : 0.481
Размер потока : 12,2 Гбайт (74%)
Язык : English
Default : Да
Forced : НетАудио #1
Идентификатор : 2
Формат : AC-3
Формат/Информация : Audio Coding 3
Идентификатор кодека : A_AC3
Продолжительность : 1 ч. 12 м.
Вид битрейта : Постоянный
Битрейт : 192 Кбит/сек
Каналы : 2 канала
Расположение каналов : Front: L R
Частота : 48,0 КГц
Частота кадров : 31,250 кадров/сек (1536 SPF)
Битовая глубина : 16 бит
Метод сжатия : С потерями
Размер потока : 100,0 Мбайт (1%)
Заголовок : DUB (Невафильм, 2005г.)
Язык : Russian
ServiceKind/String : Complete Main
Default : Да
Forced : НетАудио #2
Идентификатор : 3
Формат : AC-3
Формат/Информация : Audio Coding 3
Идентификатор кодека : A_AC3
Продолжительность : 1 ч. 12 м.
Вид битрейта : Постоянный
Битрейт : 192 Кбит/сек
Каналы : 2 канала
Расположение каналов : Front: L R
Частота : 48,0 КГц
Частота кадров : 31,250 кадров/сек (1536 SPF)
Битовая глубина : 16 бит
Метод сжатия : С потерями
Размер потока : 100,0 Мбайт (1%)
Заголовок : MVO (Selena International СТС)
Язык : Russian
ServiceKind/String : Complete Main
Default : Нет
Forced : НетАудио #3
Идентификатор : 4
Формат : AC-3
Формат/Информация : Audio Coding 3
Идентификатор кодека : A_AC3
Продолжительность : 1 ч. 12 м.
Вид битрейта : Постоянный
Битрейт : 192 Кбит/сек
Каналы : 2 канала
Расположение каналов : Front: L R
Частота : 48,0 КГц
Частота кадров : 31,250 кадров/сек (1536 SPF)
Битовая глубина : 16 бит
Метод сжатия : С потерями
Размер потока : 100,0 Мбайт (1%)
Заголовок : MVO (ИДДК)
Язык : Russian
ServiceKind/String : Complete Main
Default : Нет
Forced : НетАудио #4
Идентификатор : 5
Формат : AC-3
Формат/Информация : Audio Coding 3
Идентификатор кодека : A_AC3
Продолжительность : 1 ч. 12 м.
Вид битрейта : Постоянный
Битрейт : 192 Кбит/сек
Каналы : 2 канала
Расположение каналов : Front: L R
Частота : 48,0 КГц
Частота кадров : 31,250 кадров/сек (1536 SPF)
Битовая глубина : 16 бит
Метод сжатия : С потерями
Размер потока : 100,0 Мбайт (1%)
Заголовок : MVO
Язык : Russian
ServiceKind/String : Complete Main
Default : Нет
Forced : НетАудио #5
Идентификатор : 6
Формат : AC-3
Формат/Информация : Audio Coding 3
Идентификатор кодека : A_AC3
Продолжительность : 1 ч. 12 м.
Вид битрейта : Постоянный
Битрейт : 192 Кбит/сек
Каналы : 2 канала
Расположение каналов : Front: L R
Частота : 48,0 КГц
Частота кадров : 31,250 кадров/сек (1536 SPF)
Битовая глубина : 16 бит
Метод сжатия : С потерями
Размер потока : 100,0 Мбайт (1%)
Заголовок : DVO (Мьюзик-трейд)
Язык : Russian
ServiceKind/String : Complete Main
Default : Нет
Forced : НетАудио #6
Идентификатор : 7
Формат : DTS
Формат/Информация : Digital Theater Systems
Профиль формата : MA / Core
Идентификатор кодека : A_DTS
Продолжительность : 1 ч. 12 м.
Вид битрейта : Переменный / Постоянный
Битрейт : 3570 Кбит/сек / 1509 Кбит/сек
Каналы : 6 каналов
Расположение каналов : Front: L C R, Side: L R, LFE
Частота : 48,0 КГц
Частота кадров : 93,750 кадра/сек (512 SPF)
Битовая глубина : 24 бит
Метод сжатия : Без потерь / Lossy
Размер потока : 1,82 Гбайт (11%)
Заголовок : AVO (Ю. Живов)
Язык : Russian
Default : Нет
Forced : НетАудио #7
Идентификатор : 8
Формат : AC-3
Формат/Информация : Audio Coding 3
Идентификатор кодека : A_AC3
Продолжительность : 1 ч. 12 м.
Вид битрейта : Постоянный
Битрейт : 192 Кбит/сек
Каналы : 2 канала
Расположение каналов : Front: L R
Частота : 48,0 КГц
Частота кадров : 31,250 кадров/сек (1536 SPF)
Битовая глубина : 16 бит
Метод сжатия : С потерями
Размер потока : 100,0 Мбайт (1%)
Заголовок : VO (женский)
Язык : Russian
ServiceKind/String : Complete Main
Default : Нет
Forced : НетАудио #8
Идентификатор : 9
Формат : DTS
Формат/Информация : Digital Theater Systems
Профиль формата : MA / Core
Идентификатор кодека : A_DTS
Продолжительность : 1 ч. 12 м.
Вид битрейта : Переменный / Постоянный
Битрейт : 3531 Кбит/сек / 1509 Кбит/сек
Каналы : 6 каналов
Расположение каналов : Front: L C R, Side: L R, LFE
Частота : 48,0 КГц
Частота кадров : 93,750 кадра/сек (512 SPF)
Битовая глубина : 24 бит
Метод сжатия : Без потерь / Lossy
Размер потока : 1,80 Гбайт (11%)
Заголовок : ENG
Язык : English
Default : Нет
Forced : НетТекст
Идентификатор : 10
Формат : UTF-8
Идентификатор кодека : S_TEXT/UTF8
Идентификатор кодека/Информация : UTF-8 Plain Text
Продолжительность : 1 ч. 12 м.
Битрейт : 58 бит/сек
ElementCount : 877
Размер потока : 31,3 Кбайт (0%)
Заголовок : Eng Sub
Язык : English
Default : Нет
Forced : НетМеню
00:00:00.000 : en:Chapter 1
00:01:37.430 : en:Chapter 2
00:05:33.541 : en:Chapter 3
00:10:47.897 : en:Chapter 4
00:12:50.019 : en:Chapter 5
00:16:08.801 : en:Chapter 6
00:20:41.031 : en:Chapter 7
00:21:37.754 : en:Chapter 8
00:26:24.833 : en:Chapter 9
00:29:42.238 : en:Chapter 10
00:32:17.936 : en:Chapter 11
00:37:37.129 : en:Chapter 12
00:40:49.447 : en:Chapter 13
00:43:00.828 : en:Chapter 14
00:44:37.800 : en:Chapter 15
00:46:47.346 : en:Chapter 16
00:49:37.516 : en:Chapter 17
00:51:09.232 : en:Chapter 18
00:55:51.014 : en:Chapter 19
01:00:31.419 : en:Chapter 20
01:02:36.419 : en:Chapter 21
01:05:10.573 : en:Chapter 22
01:08:32.024 : en:Chapter 23
01:10:23.052 : en:Chapter 24

BDInfo

Disc Title: ADVENTURES_OF_ICHABOD_COMBO
Disc Size: 46,354,364,350 bytes
Protection: AACS
BD-Java: Yes
Playlist: 00801.MPLS
Size: 16,913,111,040 bytes
Length: 1:12:48.405
Total Bitrate: 30.97 Mbps
Video: MPEG-4 AVC Video / 23987 kbps / 1080p / 23.976 fps / 16:9 / High Profile 4.1
Audio: English / DTS-HD Master Audio / 5.1 / 48 kHz / 3531 kbps / 24-bit (DTS Core: 5.1 / 48 kHz / 1509 kbps / 24-bit)
Audio: English / Dolby Digital Audio / 2.0 / 48 kHz / 320 kbps / Dolby Surround
Audio: French / Dolby Digital Audio / 5.1 / 48 kHz / 640 kbps
Audio: Spanish / Dolby Digital Audio / 5.1 / 48 kHz / 640 kbps
Subtitle: English / 41.626 kbps
Subtitle: French / 34.685 kbps
Subtitle: Spanish / 29.949 kbps
Subtitle: French / 0.468 kbps
Subtitle: Spanish / 0.141 kbps

Для скачки контента: [Установить программу-клиент] и кликнуть по - СкачатьБезопасность: клиент проверен АВ Касперского

[asmlocator.ru].t594006.torrent 
Торрент: Зарегистрирован [ 2018-12-06 12:30 ] · 9D09835F58466AE273F62B88E029FDE69699A697

Скачать .torrent

Скачать

82 KB

Статус: проверено
Скачан: 0 раз
Размер: 16,36 GB
terms.php
[Профиль] [ЛС]
Показать сообщения:    
Ответить на тему

Текущее время: 10-Дек 09:49

Часовой пояс: UTC ± 0



Вы не можете начинать темы
Вы не можете отвечать на сообщения
Вы не можете редактировать свои сообщения
Вы не можете удалять свои сообщения
Вы не можете голосовать в опросах
Вы не можете прикреплять файлы к сообщениям
Вы можете скачивать файлы