Всё для тебя / Всё ради тебя / Nene Raju Nene Mantri (Теджа / Teja) [2017, Индия, боевик, триллер, криминал, WEB-DL 1080p] MVO (SDI Media) + Sub Eng + Original Tel

Ответить на тему
Статистика раздачи
Размер:  8,08 GB   |    Зарегистрирован:  3 дня   |    Скачан:  0 раз

Полного источника не было: Никогда

 
   
 
 
Автор Сообщение

star21 ®

Пол: Женский

Стаж: 3 года 1 месяц

Сообщений: 552880

Откуда: Екатеринбург

Создавать темы 06-Дек-2018 12:30

[Цитировать]

Всё для тебя / Всё ради тебя
Nene Raju Nene Mantri
Страна: Индия
Студия: Suresh Productions, Blue Planet Entertainments
Жанр: боевик, триллер, криминал
Год выпуска: 2017
Продолжительность: 02:30:43Перевод: Профессиональный (многоголосый закадровый) SDI Media [ТК ИНДИЙСКОЕ КИНО]
Субтитры: английские
Оригинальная аудиодорожка: телугуРежиссер: Теджа / TejaВ ролях: Рана Даггубати (Бахубали: Начало, Бахубали: Завершение), Каджал Агарвал (Великий воин), Махеш Ачанта, Эджей, Аннапурна, Таникелла Бхарани, Рагху Кумар Каруманчи, Навдип, Кришна Мурали Посани, Сиваджи Раджа и др.Описание: У ростовщика Джоги была только она — его жена Радха. Они мирно и счастливо жили в своей деревне — до тех пор, пока с Радхой не случилась беда. Теперь Джоги уверен: чтобы его жена была счастлива, он должен вступить в политические игры и выйти победителем, чего бы это ни стоило.Доп. информация: За запись звука большое спасибо Sonntag204 СэмплТип релиза: WEB-DL 1080p
Контейнер: MKVВидео: 1920x816 (16:9), 23.970 fps, AVC, 7063 Mb/s, 0.188 bpp
Аудио 1: AC3; 192 Kbps; 2.0 ch; 48 khz; 16 bit [Русский] | MVO - [SDI Media]
Аудио 2: AC3; 448 Kbps; 5.1 ch; 48 khz; 16 bit [Телугу] | Original - [WEB-DL]
Формат субтитров: softsub (SRT)

MediaInfo

Format                      : MatroskaFormat version              : Version 4 / Version 2File size                   : 8.08 GiBDuration                    : 2 h 30 minOverall bit rate            : 7 676 kb/sEncoded date                : UTC 2018-12-05 02:38:19Writing application         : mkvmerge v13.0.0 ('The Juggler') 64bitWriting library             : libebml v1.3.4 + libmatroska v1.4.5Cover                       : YesAttachments                 : cover.pngVideoID                          : 1Format                      : AVCFormat/Info                 : Advanced Video CodecFormat profile              : High@L4.1Format settings             : CABAC / 4 Ref FramesFormat settings, CABAC      : YesFormat settings, ReFrames   : 4 framesCodec ID                    : V_MPEG4/ISO/AVCDuration                    : 2 h 30 minBit rate                    : 7 063 kb/sWidth                       : 1 920 pixelsHeight                      : 816 pixelsDisplay aspect ratio        : 2.35:1Frame rate mode             : ConstantFrame rate                  : 23.970 FPSColor space                 : YUVChroma subsampling          : 4:2:0Bit depth                   : 8 bitsScan type                   : ProgressiveBits/(Pixel*Frame)          : 0.188Stream size                 : 7.41 GiB (92%)Title                       : Nene.Raju.Nene.Mantri.2017.1080p.WEB-DL.AVC.AC3.2.0.Rus.TelWriting library             : x264 core 148 r2708 86b7198Encoding settings           : cabac=1 / ref=2 / deblock=1:0:0 / analyse=0x3:0x113 / me=hex / subme=6 / psy=1 / psy_rd=1.00:0.00 / mixed_ref=1 / me_range=16 / chroma_me=1 / trellis=1 / 8x8dct=1 / cqm=0 / deadzone=21,11 / fast_pskip=1 / chroma_qp_offset=-2 / threads=12 / lookahead_threads=2 / sliced_threads=0 / nr=0 / decimate=1 / interlaced=0 / bluray_compat=0 / constrained_intra=0 / bframes=3 / b_pyramid=2 / b_adapt=1 / b_bias=0 / direct=1 / weightb=1 / open_gop=0 / weightp=1 / keyint=240 / keyint_min=24 / scenecut=40 / intra_refresh=0 / rc_lookahead=30 / rc=abr / mbtree=1 / bitrate=7063 / ratetol=1.0 / qcomp=0.60 / qpmin=0 / qpmax=69 / qpstep=4 / vbv_maxrate=62500 / vbv_bufsize=78125 / nal_hrd=none / filler=0 / ip_ratio=1.40 / aq=1:1.00Language                    : TeluguDefault                     : YesForced                      : NoColor range                 : LimitedColor primaries             : BT.709Transfer characteristics    : BT.709Matrix coefficients         : BT.709Audio #1ID                          : 2Format                      : AC-3Format/Info                 : Audio Coding 3Commercial name             : Dolby DigitalCodec ID                    : A_AC3Duration                    : 2 h 30 minBit rate mode               : ConstantBit rate                    : 192 kb/sChannel(s)                  : 2 channelsChannel positions           : Front: L RSampling rate               : 48.0 kHzFrame rate                  : 31.250 FPS (1536 SPF)Bit depth                   : 16 bitsCompression mode            : LossyDelay relative to video     : -18 msStream size                 : 207 MiB (3%)Title                       : AC3 2.0 CH @ 192K [MVO | SDI Media]Language                    : RussianService kind                : Complete MainDefault                     : YesForced                      : NoAudio #2ID                          : 3Format                      : AC-3Format/Info                 : Audio Coding 3Commercial name             : Dolby DigitalCodec ID                    : A_AC3Duration                    : 2 h 30 minBit rate mode               : ConstantBit rate                    : 448 kb/sChannel(s)                  : 6 channelsChannel positions           : Front: L C R, Side: L R, LFESampling rate               : 48.0 kHzFrame rate                  : 31.250 FPS (1536 SPF)Bit depth                   : 16 bitsCompression mode            : LossyDelay relative to video     : -18 msStream size                 : 483 MiB (6%)Title                       : AC3 5.1 (2.0) CH @ 448K [Original | WEB-DL]Language                    : TeluguService kind                : Complete MainDefault                     : NoForced                      : NoTextID                          : 4Format                      : UTF-8Codec ID                    : S_TEXT/UTF8Codec ID/Info               : UTF-8 Plain TextDuration                    : 2 h 27 minBit rate                    : 62 b/sCount of elements           : 1707Stream size                 : 67.5 KiB (0%)Language                    : EnglishDefault                     : NoForced                      : No

Для скачки контента: [Установить программу-клиент] и кликнуть по - СкачатьБезопасность: клиент проверен АВ Касперского

[asmlocator.ru].t594004.torrent 
Торрент: Зарегистрирован [ 2018-12-06 12:30 ] · 0110835708FE623E408950B3950AA7C028B5261A

Скачать .torrent

Скачать

21 KB

Статус: проверено
Скачан: 0 раз
Размер: 8,08 GB
terms.php
[Профиль] [ЛС]
Показать сообщения:    
Ответить на тему

Текущее время: 10-Дек 09:50

Часовой пояс: UTC ± 0



Вы не можете начинать темы
Вы не можете отвечать на сообщения
Вы не можете редактировать свои сообщения
Вы не можете удалять свои сообщения
Вы не можете голосовать в опросах
Вы не можете прикреплять файлы к сообщениям
Вы можете скачивать файлы