Строгановы. Елена последняя (Сергей Майоров) [2018, Россия, Документальный, биография, HDTV 1080i]

Ответить на тему
Статистика раздачи
Размер:  3,13 GB   |    Зарегистрирован:  4 дня   |    Скачан:  0 раз
Сидов:  2  [  0 KB/s  ]   Личеров:  1  [  0 KB/s  ]   Подробная статистика пиров
 
   
 
 
Автор Сообщение

star21 ®

Пол: Женский

Стаж: 3 года 1 месяц

Сообщений: 552880

Откуда: Екатеринбург

Создавать темы 06-Дек-2018 08:20

[Цитировать]

Строгановы. Елена последняя Страна: Россия
Студия: Первый канал
Жанр: Документальный, биография
Год выпуска: 2018
Продолжительность: 00:48:56
Режиссёр: Сергей Майоров
В ролях: Елена Строганова, Михаил Пиотровский, Сергей Любимцев, Наталья Метелица, Ольга Таратынова, Георгий Чагин, матушка АриаднаОписание: Документальный фильм о Елене Андреевне Строгановой (баронессе Элен фон Людингаузен), последней из великой династии Строгановых. Вся ее жизнь прошла за границей — во Франции, Бразилии, Америке, но на вопрос «А вы откуда?» она всегда отвечает: «Русская». Понять ее — все равно что расшифровать генетический код страны, погибшей сто лет назад. Так мы решили, отправляясь в это путешествие. Можно сказать, историческое. Но лучше сказать — человеческое…Доп. информация:
Автор релиза -
Исходник - HDTV TS 1080i - моя запись с канала Первый HDСэмпл: http://multi-up.com/1216484 Рекламы нет!Качество видео: HDTV 1080i
Формат видео: TSВидео: MPEG-4, 1920x1080 (16:9), 25.000 fps, 8094 kbps, 0.156 bit/pixel
Аудио 1: Русский MP2, 48000 Гц, 2ch, 224 kbps
Аудио 2: Русский AC3, 48000 Гц, 2ch, 384 kbps

MediaInfo

ОбщееИдентификатор                            : 1 (0x1)Полное имя                               : D:\Строгановы.Елена.последняя.2018.HDTV.1080i-ylnian.tsФормат                                   : MPEG-TSРазмер файла                             : 3,13 ГбайтПродолжительность                        : 48 м. 55 с.Режим общего битрейта                    : ПеременныйОбщий поток                              : 9161 Кбит/секВидеоИдентификатор                            : 1902 (0x76E)Идентификатор меню                       : 92 (0x5C)Формат                                   : AVCФормат/Информация                        : Advanced Video CodecПрофиль формата                          : High@L4Настройки формата                        : CABAC / 3 Ref FramesПараметр CABAC формата                   : ДаПараметр RefFrames формата               : 3 кадраИдентификатор кодека                     : 27Продолжительность                        : 48 м. 55 с.Битрейт                                  : 8094 Кбит/секШирина                                   : 1920 пикселейВысота                                   : 1080 пикселейСоотношение сторон                       : 16:9Частота кадров                           : 25,000 кадров/секСтандарт вещания                         : ComponentЦветовое пространство                    : YUVСубдискретизация насыщенности            : 4:2:0Битовая глубина                          : 8 битТип развёртки                            : ЧересстрочнаяМетод сохранения типа развёртки          : Раздельные поляПорядок развёртки                        : Верхнее поле первоеБит/(Пиксели*Кадры)                      : 0.156Размер потока                            : 2,77 Гбайт (88%)Цветовой диапазон                        : LimitedОсновные цвета                           : BT.709Характеристики трансфера                 : BT.709Коэффициенты матрицы                     : BT.709Аудио #1Идентификатор                            : 2902 (0xB56)Идентификатор меню                       : 92 (0x5C)Формат                                   : MPEG AudioВерсия формата                           : Version 1Профиль формата                          : Layer 2Идентификатор кодека                     : 3Продолжительность                        : 48 м. 55 с.Вид битрейта                             : ПостоянныйБитрейт                                  : 224 Кбит/секКаналы                                   : 2 каналаЧастота                                  : 48,0 КГцЧастота кадров                           : 41,667 кадра/сек (1152 SPF)Метод сжатия                             : С потерямиЗадержка видео                           : -120 мс.Размер потока                            : 78,4 Мбайт (2%)Язык                                     : RussianАудио #2Идентификатор                            : 3902 (0xF3E)Идентификатор меню                       : 92 (0x5C)Формат                                   : AC-3Формат/Информация                        : Audio Coding 3Коммерческое название                    : Dolby DigitalИдентификатор кодека                     : 6Продолжительность                        : 48 м. 55 с.Вид битрейта                             : ПостоянныйБитрейт                                  : 384 Кбит/секКаналы                                   : 6 каналовChannel layout                           : L R C LFE Ls RsЧастота                                  : 48,0 КГцЧастота кадров                           : 31,250 кадров/сек (1536 SPF)Битовая глубина                          : 16 битМетод сжатия                             : С потерямиЗадержка видео                           : -120 мс.Размер потока                            : 134 Мбайт (4%)Язык                                     : RussianServiceKind/String                       : Complete Main

Для скачки контента: [Установить программу-клиент] и кликнуть по - СкачатьБезопасность: клиент проверен АВ Касперского

[asmlocator.ru].t593981.torrent 
Торрент: Зарегистрирован [ 2018-12-06 08:20 ] · C1BAF165872ACDDDC3A2FF68D064EE43BD654960

Скачать .torrent

Скачать

16 KB

Статус: проверено
Скачан: 0 раз
Размер: 3,13 GB
terms.php
[Профиль] [ЛС]
Показать сообщения:    
Ответить на тему

Текущее время: 10-Дек 09:51

Часовой пояс: UTC ± 0



Вы не можете начинать темы
Вы не можете отвечать на сообщения
Вы не можете редактировать свои сообщения
Вы не можете удалять свои сообщения
Вы не можете голосовать в опросах
Вы не можете прикреплять файлы к сообщениям
Вы можете скачивать файлы