Холодная война 2 / Cold War II / Hon zin 2 (Лок Мэн Люн / Lok Man Leung, Ким-Чин Люк / Kim-Ching Luk) [2016, Гонконг, Китай, Боевик, драма, криминал, HDRip] DVO (STEPonee) + Sub Eng + Original Zho

Reply to topic
DL-List and Torrent activity
Size:  1.81 GB   |    Registered:  5 months 18 days   |    Completed:  0 times

Seeder not seen: Never

 
   
 
 
Author Message

star21 ®

Gender: Female

Longevity: 3 years 6 months

Posts: 552208

Location: Екатеринбург

Post 06-Dec-2018 08:20

[Quote]

Холодная война 2 / Cold War II / Hon zin 2 Страна: Гонконг, Китай
Жанр: Боевик, драма, криминал
Год выпуска: 2016
Продолжительность: 01:49:52Перевод: Любительский (двухголосый закадровый) | STEPonee
Субтитры: английские
Оригинальная аудиодорожка: китайскийРежиссер: Лок Мэн Люн / Lok Man Leung, Ким-Чин Люк / Kim-Ching LukВ ролях: Аарон Квок, Тони Люн Ка-фай, Чоу Юнь-Фат, Чарли Ен, Эдди Пэн, Аариф Ли, Ма Или, Мэтт Тотти, Темур Мамисашвили, Эндрю ДашОписание: Спустя пару дней после событий первого фильма неизвестные преступники наносят следующий удар. Они похищают жену нового комиссара Шона Лау и предлагают обменять женщину на арестованного злодея из первого фильма. Член городского совета Освальд Кан предполагает, что комиссар и его бывший коллега Ли могут быть напрямую связаны с похитителями, поэтому он запускает собственное расследование. Он ещё не подозревает, насколько высоко пробрались заговорщики в правительственные круги Гонконга.| IMDb | КиноПоиск | Скачать сэмпл |Исходник для рипа: BDRip 720p, за который спасибо G00ba и leewee@IDEКачество видео: HDRip
Формат видео: AVIВидео: 720x304 (2.37:1), 23.976 fps, XviD build 67 ~1707 kbps avg, 0.325 bit/pixel
Аудио 1: 48 kHz, AC3 Dolby Digital, 2/0 (L,R) ch, ~192 kbps | Любительский двухголосый (STEPonee)
Аудио 2: 48 kHz, AC3 Dolby Digital, 3/2 (L,C,R,l,r) + LFE ch, ~448 kbps | Китайский
Формат субтитров: softsub (SRT)
STEPonee - над озвучкой работали:
роли озвучивали: Владислав Андрейченко, Натиа Макаридзе; перевод: ФСГ 'Your Dream'; звуковик: Натиа Макаридзе

MediaInfo

ОбщееПолное имя                               : C:\Holodnaya.vojna.2.2016.HDRip\Holodnaya.vojna.2.2016.HDRip.aviФормат                                   : AVIФормат/Информация                        : Audio Video InterleaveРазмер файла                             : 1,46 ГбайтПродолжительность                        : 1 ч. 49 м.Общий поток                              : 1908 Кбит/секНазвание фильма                          : Холодная война 2 / Hon zin 2 (2016) HDRipРежиссёр                                 : Лок Мэн Люн / Lok Man Leung, Ким-Чин Люк / Kim-Ching LukЖанр                                     : Боевик, драма, криминалПрограмма кодирования                    : VirtualDubMod 1.5.10.2 (build 2542/release)Формат оригинала/Имя                     : Художественный фильмАвторское право                          : China Film Co., EDKO Film Ltd., Irresistible FilmsПримечание                               : vitolinformВидеоИдентификатор                            : 0Формат                                   : MPEG-4 VisualПрофиль формата                          : Advanced Simple@L5Настройки формата                        : BVOP2Параметр BVOP формата                    : 2Параметр QPel формата                    : НетПараметр GMC формата                     : Без точки переходаПараметр матрицы формата                 : Default (MPEG)Идентификатор кодека                     : XVIDИдентификатор кодека/Подсказка           : XviDПродолжительность                        : 1 ч. 49 м.Битрейт                                  : 1707 Кбит/секШирина                                   : 720 пикселейВысота                                   : 304 пикселяСоотношение сторон                       : 2,35:1Частота кадров                           : 23,976 (24000/1001) кадра/секЦветовое пространство                    : YUVСубдискретизация насыщенности            : 4:2:0Битовая глубина                          : 8 битТип развёртки                            : ПрогрессивнаяМетод сжатия                             : С потерямиБит/(Пиксели*Кадры)                      : 0.325Размер потока                            : 1,31 Гбайт (89%)Библиотека кодирования                   : XviD 67АудиоИдентификатор                            : 1Формат                                   : AC-3Формат/Информация                        : Audio Coding 3Идентификатор кодека                     : 2000Продолжительность                        : 1 ч. 49 м.Вид битрейта                             : ПостоянныйБитрейт                                  : 192 Кбит/секКаналы                                   : 2 каналаРасположение каналов                     : Front: L RЧастота                                  : 48,0 КГцЧастота кадров                           : 31,250 кадров/сек (1536 SPF)Битовая глубина                          : 16 битМетод сжатия                             : С потерямиРазмер потока                            : 151 Мбайт (10%)Выравнивание                             : Разделение по промежуткамПродолжительность промежутка             : 42  мс. (1,00 видеокадр)Время предзагрузки промежутка            : 500  мс.Заголовок                                : Russian (DVO STEPonee)ServiceKind/String                       : Complete Main

Скриншот c названием фильма

Скриншоты


To download the content you need:
1. Download and install torrent client [for Windows] or for mobile system
2. Click on [Download]
Attention.
If the test YOU are NOT a ROBOT - does not work, then You are using an outdated browser.
Install the current browser and click on [Download]
Security: torrent client is allowed by Kaspersky.

[asmlocator.ru].t593961.torrent 
Torrent: Registered [ 2018-12-06 08:20 ] · E2A17131831AE45A15CE085BA9885FF55F92417D

Download .torrent

Download

19 KB

Status: checked
Completed: 0 times
Size: 1.81 GB
terms.php
[Profile] [PM]
Display posts:    
Reply to topic

Current time is: 24-May 10:25

All times are UTC ± 0



You cannot post new topics in this forum
You cannot reply to topics in this forum
You cannot edit your posts in this forum
You cannot delete your posts in this forum
You cannot vote in polls in this forum
You cannot attach files in this forum
You can download files in this forum