(Rock, Psychedelic Rock) [CD] VA - Psychedelic Minds Vol. 1 - Heavy Underground 1967-71 - 2006, FLAC (tracks+.cue), lossless

Ответить на тему
Статистика раздачи
Размер:  249 MB   |    Зарегистрирован:  4 дня   |    Скачан:  0 раз

Полного источника не было: Никогда

 
   
 
 
Автор Сообщение

star21 ®

Пол: Женский

Стаж: 3 года 1 месяц

Сообщений: 552880

Откуда: Екатеринбург

Создавать темы 05-Дек-2018 23:40

[Цитировать]

Various Artists - Psychedelic Minds Vol. 1 - Heavy Underground 1967-71 Жанр: Rock, Psychedelic Rock
Носитель: CD
Страна-производитель диска (релиза): Germany
Год издания: 2006
Издатель (лейбл): World In Sound
Номер по каталогу: WIS-1032
Аудиокодек: FLAC (*.flac)
Тип рипа: tracks+.cue
Битрейт аудио: lossless
Продолжительность: 00:45:15
Источник (релизер): Собственный рип
Наличие сканов в содержимом раздачи: даТреклист:
01. Blackrock - Bad Cloud Overhead (03:36)
02. Sound Machine - Woman (03:52)
03. Yesterday's Obsession - The Phycle (03:11)
04. Mastermind - Turn Of The Head (03:31)
05. Sangre Mexicana - Good Cause (02:48)
06. Bhagavad Gita - Long Hair Soulful (05:45)
07. Protein Bros - Drainpipe (02:52)
08. Purple Canteen - Brains In My Feet (04:05)
09. Los Nuevos Shains - Looking You (03:37)
10. Blow Mind - They're Coming (06:12)
11. Dirty Filthy Mud - Morning Sun Flower (02:40)
12. Dirty Filthy Mud - The Forest Of Black (03:02)

Лог создания рипа

Exact Audio Copy V1.3 from 2. September 2016EAC extraction logfile from 14. November 2018, 23:12Various Artists / Psychedelic Minds Vol. 1 - Heavy Underground 1967-71Used drive  : Optiarc DVD RW AD-7260S   Adapter: 1  ID: 1Read mode               : SecureUtilize accurate stream : YesDefeat audio cache      : YesMake use of C2 pointers : NoRead offset correction                      : 48Overread into Lead-In and Lead-Out          : NoFill up missing offset samples with silence : YesDelete leading and trailing silent blocks   : NoNull samples used in CRC calculations       : YesUsed interface                              : Native Win32 interface for Win NT & 2000Gap handling                                : Appended to previous trackUsed output format              : User Defined EncoderSelected bitrate                : 768 kBit/sQuality                         : HighAdd ID3 tag                     : NoCommand line compressor         : C:\Program Files (x86)\Exact Audio Copy\FLAC\FLAC.EXEAdditional command line options : -V -8 -T "Genre=%genre%" -T "Artist=%artist%" -T "Title=%title%" -T "Album=%albumtitle%" -T "Date=%year%" -T "Tracknumber=%tracknr%" -T "Comment=%comment%" %source%TOC of the extracted CD     Track |   Start  |  Length  | Start sector | End sector    ---------------------------------------------------------        1  |  0:00.00 |  3:36.30 |         0    |    16229        2  |  3:36.30 |  3:52.28 |     16230    |    33657        3  |  7:28.58 |  3:11.08 |     33658    |    47990        4  | 10:39.66 |  3:31.36 |     47991    |    63851        5  | 14:11.27 |  2:48.50 |     63852    |    76501        6  | 17:00.02 |  5:45.45 |     76502    |   102421        7  | 22:45.47 |  2:52.01 |    102422    |   115322        8  | 25:37.48 |  4:05.50 |    115323    |   133747        9  | 29:43.23 |  3:37.27 |    133748    |   150049       10  | 33:20.50 |  6:12.72 |    150050    |   178021       11  | 39:33.47 |  2:40.16 |    178022    |   190037       12  | 42:13.63 |  3:02.04 |    190038    |   203691Track  1     Filename D:\USERS\admin\Documents\Psychedelic Minds Vol. 1 - Heavy Underground 1967-71 (2006)\01 - Blackrock - Bad Cloud Overhead.wav     Pre-gap length  0:00:02.00     Peak level 94.4 %     Extraction speed 3.2 X     Track quality 100.0 %     Test CRC 1BE9A28F     Copy CRC 1BE9A28F     Accurately ripped (confidence 4)  [9BBD86F1]  (AR v2)     Copy OKTrack  2     Filename D:\USERS\admin\Documents\Psychedelic Minds Vol. 1 - Heavy Underground 1967-71 (2006)\02 - Sound Machine - Woman.wav     Pre-gap length  0:00:03.00     Peak level 94.4 %     Extraction speed 2.9 X     Track quality 99.9 %     Test CRC DF49B97D     Copy CRC DF49B97D     Accurately ripped (confidence 4)  [3CBDCF26]  (AR v2)     Copy OKTrack  3     Filename D:\USERS\admin\Documents\Psychedelic Minds Vol. 1 - Heavy Underground 1967-71 (2006)\03 - Yesterday's Obsession - The Phycle.wav     Pre-gap length  0:00:03.00     Peak level 94.4 %     Extraction speed 3.9 X     Track quality 100.0 %     Test CRC CF7D048B     Copy CRC CF7D048B     Accurately ripped (confidence 4)  [4439288D]  (AR v2)     Copy OKTrack  4     Filename D:\USERS\admin\Documents\Psychedelic Minds Vol. 1 - Heavy Underground 1967-71 (2006)\04 - Mastermind - Turn Of The Head.wav     Pre-gap length  0:00:03.00     Peak level 94.4 %     Extraction speed 3.4 X     Track quality 99.9 %     Test CRC B58AC2A9     Copy CRC B58AC2A9     Accurately ripped (confidence 4)  [930873BF]  (AR v2)     Copy OKTrack  5     Filename D:\USERS\admin\Documents\Psychedelic Minds Vol. 1 - Heavy Underground 1967-71 (2006)\05 - Sangre Mexicana - Good Cause.wav     Pre-gap length  0:00:03.00     Peak level 94.4 %     Extraction speed 3.5 X     Track quality 99.9 %     Test CRC 1A5C5BE7     Copy CRC 1A5C5BE7     Accurately ripped (confidence 4)  [4A791BEA]  (AR v2)     Copy OKTrack  6     Filename D:\USERS\admin\Documents\Psychedelic Minds Vol. 1 - Heavy Underground 1967-71 (2006)\06 - Bhagavad Gita - Long Hair Soulful.wav     Pre-gap length  0:00:03.00     Peak level 85.8 %     Extraction speed 3.8 X     Track quality 99.9 %     Test CRC B1797D86     Copy CRC B1797D86     Accurately ripped (confidence 4)  [6D3DF6B7]  (AR v2)     Copy OKTrack  7     Filename D:\USERS\admin\Documents\Psychedelic Minds Vol. 1 - Heavy Underground 1967-71 (2006)\07 - Protein Bros - Drainpipe.wav     Pre-gap length  0:00:03.00     Peak level 94.4 %     Extraction speed 5.0 X     Track quality 100.0 %     Test CRC A9900BE8     Copy CRC A9900BE8     Accurately ripped (confidence 4)  [9776250A]  (AR v2)     Copy OKTrack  8     Filename D:\USERS\admin\Documents\Psychedelic Minds Vol. 1 - Heavy Underground 1967-71 (2006)\08 - Purple Canteen - Brains In My Feet.wav     Pre-gap length  0:00:03.00     Peak level 94.4 %     Extraction speed 4.2 X     Track quality 99.9 %     Test CRC FAEE015D     Copy CRC FAEE015D     Accurately ripped (confidence 4)  [4EDF7A58]  (AR v2)     Copy OKTrack  9     Filename D:\USERS\admin\Documents\Psychedelic Minds Vol. 1 - Heavy Underground 1967-71 (2006)\09 - Los Nuevos Shains - Looking You.wav     Pre-gap length  0:00:03.00     Peak level 94.4 %     Extraction speed 5.2 X     Track quality 100.0 %     Test CRC 18F96D6D     Copy CRC 18F96D6D     Accurately ripped (confidence 4)  [F45796B7]  (AR v2)     Copy OKTrack 10     Filename D:\USERS\admin\Documents\Psychedelic Minds Vol. 1 - Heavy Underground 1967-71 (2006)\10 - Blow Mind - They're Coming.wav     Pre-gap length  0:00:03.00     Peak level 94.4 %     Extraction speed 5.1 X     Track quality 100.0 %     Test CRC D5230CD7     Copy CRC D5230CD7     Accurately ripped (confidence 4)  [E1249E53]  (AR v2)     Copy OKTrack 11     Filename D:\USERS\admin\Documents\Psychedelic Minds Vol. 1 - Heavy Underground 1967-71 (2006)\11 - Dirty Filthy Mud - Morning Sun Flower.wav     Pre-gap length  0:00:03.00     Peak level 94.4 %     Extraction speed 5.9 X     Track quality 100.0 %     Test CRC 2B7755EA     Copy CRC 2B7755EA     Accurately ripped (confidence 4)  [E30EDDD8]  (AR v2)     Copy OKTrack 12     Filename D:\USERS\admin\Documents\Psychedelic Minds Vol. 1 - Heavy Underground 1967-71 (2006)\12 - Dirty Filthy Mud - The Forest Of Black.wav     Pre-gap length  0:00:03.00     Peak level 94.4 %     Extraction speed 6.0 X     Track quality 100.0 %     Test CRC B73BEA12     Copy CRC B73BEA12     Accurately ripped (confidence 4)  [36388596]  (AR v2)     Copy OKAll tracks accurately rippedNo errors occurredEnd of status report==== Log checksum 09C90C0274FFD8581EFE07DC0279CA565E8B611CB191752DE51D275C74CFF3BE ====

Содержание индексной карты (.CUE)

REM GENRE "Psychedelic Rock"REM DATE 2006REM DISCID 920A9B0CREM COMMENT "ExactAudioCopy v1.3"PERFORMER "Various Artists"TITLE "Psychedelic Minds Vol. 1 - Heavy Underground 1967-71"REM COMPOSER ""FILE "01 - Blackrock - Bad Cloud Overhead.wav" WAVE  TRACK 01 AUDIO    TITLE "Bad Cloud Overhead"    PERFORMER "Blackrock"    REM COMPOSER ""    INDEX 01 00:00:00  TRACK 02 AUDIO    TITLE "Woman"    PERFORMER "Sound Machine"    REM COMPOSER ""    INDEX 00 03:33:30FILE "02 - Sound Machine - Woman.wav" WAVE    INDEX 01 00:00:00  TRACK 03 AUDIO    TITLE "The Phycle"    PERFORMER "Yesterday's Obsession"    REM COMPOSER ""    INDEX 00 03:49:28FILE "03 - Yesterday's Obsession - The Phycle.wav" WAVE    INDEX 01 00:00:00  TRACK 04 AUDIO    TITLE "Turn Of The Head"    PERFORMER "Mastermind"    REM COMPOSER ""    INDEX 00 03:08:08FILE "04 - Mastermind - Turn Of The Head.wav" WAVE    INDEX 01 00:00:00  TRACK 05 AUDIO    TITLE "Good Cause"    PERFORMER "Sangre Mexicana"    REM COMPOSER ""    INDEX 00 03:28:36FILE "05 - Sangre Mexicana - Good Cause.wav" WAVE    INDEX 01 00:00:00  TRACK 06 AUDIO    TITLE "Long Hair Soulful"    PERFORMER "Bhagavad Gita"    REM COMPOSER ""    INDEX 00 02:45:50FILE "06 - Bhagavad Gita - Long Hair Soulful.wav" WAVE    INDEX 01 00:00:00  TRACK 07 AUDIO    TITLE "Drainpipe"    PERFORMER "Protein Bros"    REM COMPOSER ""    INDEX 00 05:42:45FILE "07 - Protein Bros - Drainpipe.wav" WAVE    INDEX 01 00:00:00  TRACK 08 AUDIO    TITLE "Brains In My Feet"    PERFORMER "Purple Canteen"    REM COMPOSER ""    INDEX 00 02:49:01FILE "08 - Purple Canteen - Brains In My Feet.wav" WAVE    INDEX 01 00:00:00  TRACK 09 AUDIO    TITLE "Looking You"    PERFORMER "Los Nuevos Shains"    REM COMPOSER ""    INDEX 00 04:02:50FILE "09 - Los Nuevos Shains - Looking You.wav" WAVE    INDEX 01 00:00:00  TRACK 10 AUDIO    TITLE "They're Coming"    PERFORMER "Blow Mind"    REM COMPOSER ""    INDEX 00 03:34:27FILE "10 - Blow Mind - They're Coming.wav" WAVE    INDEX 01 00:00:00  TRACK 11 AUDIO    TITLE "Morning Sun Flower"    PERFORMER "Dirty Filthy Mud"    REM COMPOSER ""    INDEX 00 06:09:72FILE "11 - Dirty Filthy Mud - Morning Sun Flower.wav" WAVE    INDEX 01 00:00:00  TRACK 12 AUDIO    TITLE "The Forest Of Black"    PERFORMER "Dirty Filthy Mud"    REM COMPOSER ""    INDEX 00 02:37:16FILE "12 - Dirty Filthy Mud - The Forest Of Black.wav" WAVE    INDEX 01 00:00:00

Лог проверки качества

-----------------------DON'T MODIFY THIS FILE-----------------------PERFORMER: auCDtect Task Manager, ver. 1.6.0 RC1 build 1.6.0.1Copyright (c) 2008-2010 y-soft. All rights reservedhttp://y-soft.orgANALYZER: auCDtect: CD records authenticity detector, version 0.8.2Copyright (c) 2004 Oleg Berngardt. All rights reserved.Copyright (c) 2004 Alexander Djourik. All rights reserved.FILE: 01 - Blackrock - Bad Cloud Overhead.flac  Size: 19963414 Hash: 3EC7530B167C8EF7D0A5B729669D3B61 Accuracy: -m0  Conclusion: CDDA 100%  Signature: 113DA0C21140FD4D70FA2E1158927038B7CBE24CFILE: 02 - Sound Machine - Woman.flac  Size: 24735520 Hash: 10CCD6D09DF8840B4324F1008FD75792 Accuracy: -m0  Conclusion: CDDA 100%  Signature: 2D70446A2B42B29F6D26E0B7AC579313553F712AFILE: 03 - Yesterday's Obsession - The Phycle.flac  Size: 15221808 Hash: 19EB4414E2F4D1B7A8FE6F781F8895AC Accuracy: -m0  Conclusion: CDDA 100%  Signature: 545B2C284A3E99402604E1B2C2BDE6EBD188D930FILE: 04 - Mastermind - Turn Of The Head.flac  Size: 15251155 Hash: E9FDA25E780D4120B19134DCBD3E24D1 Accuracy: -m0  Conclusion: CDDA 100%  Signature: 0B0880732E764ACF68D30C6EC47EEE7078D93CDCFILE: 05 - Sangre Mexicana - Good Cause.flac  Size: 15336368 Hash: 8D53B5296CAFB8931208DD882351A0FF Accuracy: -m0  Conclusion: CDDA 100%  Signature: 2842EE40EAB163F1E53E79A38385B475A2A9EC9CFILE: 06 - Bhagavad Gita - Long Hair Soulful.flac  Size: 24071216 Hash: D0DB220F0B19820FA370EBBC79619474 Accuracy: -m0  Conclusion: CDDA 100%  Signature: 3EFFDB8AD0E7D9721629883E70523E2CBA45F4FEFILE: 07 - Protein Bros - Drainpipe.flac  Size: 18058239 Hash: 565638C76189D570B428DDA21ED06F5C Accuracy: -m0  Conclusion: CDDA 100%  Signature: 2E70196E07282C384062D2264BB68ADD7130C715FILE: 08 - Purple Canteen - Brains In My Feet.flac  Size: 24889534 Hash: 555D642CD9ED030E62B8B8665DE1B6CE Accuracy: -m0  Conclusion: CDDA 87%  Signature: 76641DA53216EE09AE3B3C0E25CA53DA8C6CC037FILE: 09 - Los Nuevos Shains - Looking You.flac  Size: 21160964 Hash: BBF54A6D9988AE5A2A7800D2885B416E Accuracy: -m0  Conclusion: CDDA 100%  Signature: 821B3E27E372BAB6B3F1DECBBE9EC530692BD25CFILE: 10 - Blow Mind - They're Coming.flac  Size: 37172420 Hash: AE459948373FA91EEC44F376EA8D963F Accuracy: -m0  Conclusion: CDDA 100%  Signature: A26B244DD5FFE49CDD32B73D852D7621AE6C4BF9FILE: 11 - Dirty Filthy Mud - Morning Sun Flower.flac  Size: 13789351 Hash: F8325E095FF993CA2AB38C7096F6909A Accuracy: -m0  Conclusion: CDDA 100%  Signature: A7C27442D99733111ED79D674CA118FB4BB77723FILE: 12 - Dirty Filthy Mud - The Forest Of Black.flac  Size: 18730693 Hash: 6AEE6BBD6DD86030E7B64463FC0BEEFB Accuracy: -m0  Conclusion: MPEG 95%  Signature: EB9BBA80B5FEA32776F3B6ECB9BE59DA1214DE1E

Для скачки контента: [Установить программу-клиент] и кликнуть по - СкачатьБезопасность: клиент проверен АВ Касперского

[asmlocator.ru].t593925.torrent 
Торрент: Зарегистрирован [ 2018-12-05 23:40 ] · 5002976D6D602A343709B4370DE2C2311EA806

Скачать .torrent

Скачать

22 KB

Статус: проверено
Скачан: 0 раз
Размер: 249 MB
terms.php
[Профиль] [ЛС]
Показать сообщения:    
Ответить на тему

Текущее время: 10-Дек 09:48

Часовой пояс: UTC ± 0



Вы не можете начинать темы
Вы не можете отвечать на сообщения
Вы не можете редактировать свои сообщения
Вы не можете удалять свои сообщения
Вы не можете голосовать в опросах
Вы не можете прикреплять файлы к сообщениям
Вы можете скачивать файлы