Красавица-воин Сейлор Мун Супер Эс - Первая любовь Ами / Sailor Moon Super S Plus - Ami\'s First Love [Special] [1 из 1] [Без хардсаба] [RUS(ext), JAP+SUB] [1995, махо-сёдзё, романтика, приключения, комедия, BDRip] [1080p]

Ответить на тему
Статистика раздачи
Размер:  1,07 GB   |    Зарегистрирован:  4 дня   |    Скачан:  0 раз

Полного источника не было: Никогда

 
   
 
 
Автор Сообщение

star21 ®

Пол: Женский

Стаж: 3 года 1 месяц

Сообщений: 552880

Откуда: Екатеринбург

Создавать темы 05-Дек-2018 23:40

[Цитировать]

Год выпуска: 1995
Страна: Япония
Жанр: махо-сёдзё, романтика, приключения, комедия
Продолжительность: 16 мин
Режиссер: Игараси Такуя Описание: Этот шестнадцатиминутный короткий специальный выпуск, шедший в кинотеатрах незадолго до Рождества парой с "Sailor Moon Super S Movie", несказанно поражает качеством графики.
В центре истории стоит Сейлор Меркурий, "мозг" команды (здесь она впервые появляется в очках!). Однажды, в вывешенном списке лучших учеников она замечает таинственного Меркуриуса, который так же хорош в учебе, как и она сама. Ами решает, что это вызов на "дуэль силы духа". Теперь она может думать только об одном — учебе, которой она занимает теперь и днем, и ночью, еще усерднее, чем обычно. Остальные Сейлоры могут только покачать головой и сделать из помешательства Ами вывод о том, что она влюбилась в своего загадочного противника.
В этом уверена и демонесса Bonnōn, которая специализируется на похищении энергии влюбленных девушек. Но для этого она выбрала неправильную жертву...
World-ArtЗа весь предоставленый материал огромное спасибо Edzyowa Ссылка на исходникКачество: BDRip [by VampireHanter]
Тип релиза: Без хардсаба
Формат видео: MKVВидео: MPEG4 Video (H264), 1920x1080, ~9000, 23.976fps, 10bit
Аудио 1: Dolby AC3, 48kHz, ~384 Kbps, 2ch, Японский
Аудио 2: Dolby AC3, 48KHz, ~192 Kbps, 2ch, Русский (одноголосная, внешним файлом)
Субтитры 1: ASS, Русские (внешние) [из раздачи Ze_us]

MediaInfo

GeneralUnique ID                      : 233012072670509787483224216610994325394 (0xAF4C7E293042E297C4BA87DC5F9B0792)Complete name                  : C:\Users\Vampirehanter\Downloads\Sailor Moon\Sailor Moon Super S Plus\Sailor Moon Super S Plus [BDRip][1080p].mkvFormat                         : MatroskaFormat version                 : Version 4File size                      : 1.05 GiBDuration                       : 15 min 57 sOverall bit rate               : 9 385 kb/sEncoded date                   : UTC 2018-12-05 20:33:02Writing application            : mkvmerge v28.2.0 ('The Awakening') 64-bitWriting library                : libebml v1.3.6 + libmatroska v1.4.9VideoID                             : 1Format                         : AVCFormat/Info                    : Advanced Video CodecFormat profile                 : High 10@L4.1Format settings                : CABAC / 4 Ref FramesFormat settings, CABAC         : YesFormat settings, ReFrames      : 4 framesCodec ID                       : V_MPEG4/ISO/AVCDuration                       : 15 min 57 sBit rate                       : 9 000 kb/sWidth                          : 1 920 pixelsHeight                         : 1 080 pixelsDisplay aspect ratio           : 16:9Frame rate mode                : ConstantFrame rate                     : 23.976 (24000/1001) FPSColor space                    : YUVChroma subsampling             : 4:2:0Bit depth                      : 10 bitsScan type                      : ProgressiveBits/(Pixel*Frame)             : 0.181Stream size                    : 1.00 GiB (96%)Writing library                : x264 core 155 r2901 7d0ff22Encoding settings              : cabac=1 / ref=4 / deblock=1:1:1 / analyse=0x3:0x133 / me=umh / subme=10 / psy=1 / psy_rd=0.40:0.00 / mixed_ref=1 / me_range=24 / chroma_me=1 / trellis=2 / 8x8dct=1 / cqm=0 / deadzone=21,11 / fast_pskip=1 / chroma_qp_offset=-2 / threads=6 / lookahead_threads=1 / sliced_threads=0 / nr=0 / decimate=1 / interlaced=0 / bluray_compat=0 / constrained_intra=0 / bframes=10 / b_pyramid=2 / b_adapt=2 / b_bias=0 / direct=3 / weightb=1 / open_gop=0 / weightp=2 / keyint=240 / keyint_min=23 / scenecut=40 / intra_refresh=0 / rc_lookahead=60 / rc=2pass / mbtree=1 / bitrate=9000 / ratetol=1.0 / qcomp=0.60 / qpmin=0 / qpmax=81 / qpstep=4 / cplxblur=20.0 / qblur=0.5 / vbv_maxrate=62500 / vbv_bufsize=78125 / nal_hrd=none / filler=0 / ip_ratio=1.40 / aq=1:0.60Default                        : YesForced                         : NoAudioID                             : 2Format                         : AC-3Format/Info                    : Audio Coding 3Commercial name                : Dolby DigitalCodec ID                       : A_AC3Duration                       : 15 min 57 sBit rate mode                  : ConstantBit rate                       : 384 kb/sChannel(s)                     : 2 channelsChannel layout                 : L RSampling rate                  : 48.0 kHzFrame rate                     : 31.250 FPS (1536 SPF)Bit depth                      : 16 bitsCompression mode               : LossyStream size                    : 43.9 MiB (4%)Language                       : JapaneseService kind                   : Complete MainDefault                        : YesForced                         : No

Скриншоты

Sailor Moon Special 1 | Sailor Moon Special 2 | Sailor Moon Super S Plus [1080p]/[720p]Sailor Moon R Movie [4x3]/[url=viewtopic.php?t=5632029][16x9] | Sailor Moon S Movie [4x3]/[16x9] | Sailor Moon Super S Movie [4x3]/[16x9]

Для скачки контента: [Установить программу-клиент] и кликнуть по - СкачатьБезопасность: клиент проверен АВ Касперского

[asmlocator.ru].t593906.torrent 
Торрент: Зарегистрирован [ 2018-12-05 23:40 ] · 7CF14E5E8C18BEFE5070C4B3077D37938EA6732C

Скачать .torrent

Скачать

11 KB

Статус: проверено
Скачан: 0 раз
Размер: 1,07 GB
terms.php
[Профиль] [ЛС]
Показать сообщения:    
Ответить на тему

Текущее время: 10-Дек 09:48

Часовой пояс: UTC ± 0



Вы не можете начинать темы
Вы не можете отвечать на сообщения
Вы не можете редактировать свои сообщения
Вы не можете удалять свои сообщения
Вы не можете голосовать в опросах
Вы не можете прикреплять файлы к сообщениям
Вы можете скачивать файлы