Paul McCartney • Carpool Karaoke (The Late Late Show with James Corden) [2018, Documentary, Rock, HDTV, 1080i]

Reply to topic
DL-List and Torrent activity
Size:  5.07 GB   |    Registered:  5 months 18 days   |    Completed:  0 times

Seeder not seen: 3 months 1 day

 
   
 
 
Author Message

star21 ®

Gender: Female

Longevity: 3 years 6 months

Posts: 552208

Location: Екатеринбург

Post 05-Dec-2018 19:30

[Quote]

Carpool Karaoke
Paul McCartney Жанр: Documentary, Rock
Продолжительность: 00:43:33
Запись: June 2018 in Liverpool, England
Трансляция: August 20, 2018
Качество: HDTV
Разрешение видео/развертка: 1080i
Контейнер: TS
Видео кодек: MPEG2
Аудио кодек: AC3
Видео: MPEG2 Video 1920x1080 29.97fps 15.5 Mb/s
Аудио: Dolby AC3 48000Hz 6ch 384kbps

Треклист

intro - James Corden
pub scene - James Corden
pub scene - A Hard Day's Night - Paul McCartney
opening credits
carpool interview, Penny Lane karaoke
pub scene - Ob-La-Di, Ob-La-Da - Paul McCartney
pub scene - Drive My Car - Paul McCartney
carpool interview
Paul and James walk the streets of Liverpool
carpool interview, Hey Jude karaoke
Paul and James visit Paul's childhood home, plays When I'm Sixty Four on piano in the den
Paul and James walk back to the car, meet more fans
Blackbird karaoke
pub scene - Love Me Do - Paul McCartney
pub scene - Come On To Me - Paul McCartney
carpool interview
pub scene - I Wanna Be Your Man - Paul McCartney
pub scene - Back in the U.S.S.R. (with spoken intro) - Paul McCartney
car pool interview
pub scene - Birthday - Paul McCartney
car pool interview
pub scene - Lady Madonna - Paul McCartney
pub scene - Hey Jude - Paul McCartney (with James Corden)
closing credits

Отчёт MediaInfo / BDInfo

GeneralID                             : 1 (0x1)Complete name                  : E:\Paul McCartney Carpool Karaoke (The Late Late Show with James Corden) 2018.tsFormat                         : MPEG-TSFile size                      : 5.07 GiBDuration                       : 43 min 32 sOverall bit rate mode          : VariableOverall bit rate               : 16.7 Mb/sMovie name                     : Program NameVideoID                             : 224 (0xE0)Menu ID                        : 1 (0x1)Format                         : MPEG VideoFormat version                 : Version 2Format profile                 : Main@HighFormat settings                : CustomMatrix / BVOPFormat settings, BVOP          : YesFormat settings, Matrix        : CustomFormat settings, GOP           : VariableFormat settings, picture struc : FrameCodec ID                       : 2Duration                       : 43 min 32 sBit rate mode                  : VariableBit rate                       : 15.5 Mb/sMaximum bit rate               : 80.0 Mb/sWidth                          : 1 920 pixelsHeight                         : 1 080 pixelsDisplay aspect ratio           : 16:9Frame rate                     : 29.970 (30000/1001) FPSColor space                    : YUVChroma subsampling             : 4:2:0Bit depth                      : 8 bitsScan type                      : InterlacedScan order                     : Top Field FirstCompression mode               : LossyBits/(Pixel*Frame)             : 0.249Time code of first frame       : 00:00:00;00Time code source               : Group of pictures headerGOP, Open/Closed               : OpenGOP, Open/Closed of first fram : ClosedStream size                    : 4.71 GiB (93%)Color primaries                : BT.709Transfer characteristics       : BT.709Matrix coefficients            : BT.709AudioID                             : 128 (0x80)Menu ID                        : 1 (0x1)Format                         : AC-3Format/Info                    : Audio Coding 3Commercial name                : Dolby DigitalCodec ID                       : 129Duration                       : 43 min 32 sBit rate mode                  : ConstantBit rate                       : 384 kb/sChannel(s)                     : 6 channelsChannel layout                 : L R C LFE Ls RsSampling rate                  : 48.0 kHzFrame rate                     : 31.250 FPS (1536 SPF)Bit depth                      : 16 bitsCompression mode               : LossyDelay relative to video        : 6 msStream size                    : 120 MiB (2%)Language                       : EnglishService kind                   : Complete Main

To download the content you need:
1. Download and install torrent client [for Windows] or for mobile system
2. Click on [Download]
Attention.
If the test YOU are NOT a ROBOT - does not work, then You are using an outdated browser.
Install the current browser and click on [Download]
Security: torrent client is allowed by Kaspersky.

[asmlocator.ru].t593885.torrent 
Torrent: Registered [ 2018-12-05 19:30 ] · E3B77857EF9F605D92FCAFE469CF70F40405CC31

Download .torrent

Download

13 KB

Status: checked
Completed: 0 times
Size: 5.07 GB
terms.php
[Profile] [PM]
Display posts:    
Reply to topic

Current time is: 24-May 10:26

All times are UTC ± 0



You cannot post new topics in this forum
You cannot reply to topics in this forum
You cannot edit your posts in this forum
You cannot delete your posts in this forum
You cannot vote in polls in this forum
You cannot attach files in this forum
You can download files in this forum