Жасмин - Да! Сольный концерт в ГЦКЗ Россия [2005, POP, DVDRip]

Ответить на тему
Статистика раздачи
Размер:  2,59 GB   |    Зарегистрирован:  4 дня   |    Скачан:  0 раз

Полного источника не было: Никогда

 
   
 
 
Автор Сообщение

star21 ®

Пол: Женский

Стаж: 3 года 1 месяц

Сообщений: 552880

Откуда: Екатеринбург

Создавать темы 05-Дек-2018 19:30

[Цитировать]

Жасмин - Да! Сольный концерт в ГЦКЗ Россия Страна: Россия
Жанр: POP
Продолжительность: 02:43:00
Год выпуска: 2005
Описание: Cольные концерты Жасмин в ГЦКЗ "Россия" режиссировала сама Алла Пугачева. "Мне безумно интересно участвовать в таких проектах, - прокомментировала свое участие Алла Борисовна. - У меня была интересная задача (позвольте не объяснять какая), и я ее выполнила. И, само собой разумеется, я за это взяла деньги. Я же профессионал. Но если мне неинтересно, ты меня хоть завали деньгами, я не буду участвовать". Свою задачу, примадонна выполнила за 150 тыс. долл. А расходы на постановку шоу, превысили миллион долларовИсточник: собственный рипКачество: DVDRip
Контейнер: MKV
Видео кодек: H.265
Аудио кодек: AC3
Видео: HEVC/H.265, 710x576@768x576 (4:3), ~2 000 Kbps, 25fps
Аудио: AC-3, 2 ch, 256 Kbps, 48000Hz

Треклист

Первое отделение:
01. Пролог Яблоко
02. Девочка
03. Так не должно быть
04. Время любви
05. Как ты мне нужен
06. На одном дыхании любви (дуэт с В. Топаловым)
07. Не получилось
08. Перепишу любовь
09. Назовёт
10. Возьми от жизни всё (дуэт с А. Гоманом)
11. Не буду буду
12. Не говори мне
13. Только ты (дуэт с Н. Басковым)
14. Иллюзионист А.Неметов
15. Не отпускай меня
16. Как всегда
17. Выпьем за любовь (дуэт с И. Николаевым)
18. Ты меня любил
19. Разгадай любовь
20. Да!
Второе отделение:
01. Индийское диско
02. Капля лета
03. Тук-тук (дуэт с Д. Дюжевым)
04. О чём плачет птица
05. Море-море
06. Every time (дуэт с N`Evergreen)
07. Вкус ночи
08. Три слова (дуэт с А. Панайотовым)
09. Торопишься слишком (ремикс)
10. Любовь не игрушка
11. Виртуальный мачо (дуэт с В. Винокуром)
12. Кис-кис
13. Шалом (дуэт с Ф. Киркоровым)
14. Я верю в любовь (Ф.Киркоров)
15. Сто процентов
16. Головоломка
17. Дольче вита
18. Самый любимый
19. Давай объявим между нами мир

MI

Jasmin1.mkv
Format : Matroska
Format version : Version 4 / Version 2
File size : 1.30 GiB
Duration : 1 h 21 min
Overall bit rate : 2 267 kb/s
Movie name : VIDEO_TS
Encoded date : UTC 2018-11-30 04:24:31 / UTC 2018-11-29T21:06:55Z
Writing application : mkvmerge v24.0.0 ('Beyond The Pale') 64-bit
Writing library : libebml v1.3.6 + libmatroska v1.4.9 / Lavf57.7.2Video
ID : 1
Format : HEVC
Format/Info : High Efficiency Video Coding
Format profile : Main@L3@Main
Codec ID : V_MPEGH/ISO/HEVC
Duration : 1 h 21 min
Bit rate : 1 966 kb/s
Width : 710 pixels
Height : 576 pixels
Display aspect ratio : 4:3
Original display aspect ratio : 4:3
Frame rate mode : Constant
Frame rate : 25.000 FPS
Color space : YUV
Chroma subsampling : 4:2:0
Bit depth : 8 bits
Bits/(Pixel*Frame) : 0.192
Stream size : 1.12 GiB (87%)
Writing library : x265 2.6:[Linux][GCC 7.3.0][64 bit] 8bit+10bit+12bit
Encoding settings : cpuid=1105919 / frame-threads=2 / wpp / no-pmode / no-pme / no-psnr / no-ssim / log-level=2 / input-csp=1 / input-res=710x576 / interlace=0 / total-frames=0 / level-idc=0 / high-tier=1 / uhd-bd=0 / ref=2 / no-allow-non-conformance / no-repeat-headers / annexb / no-aud / no-hrd / info / hash=0 / no-temporal-layers / open-gop / min-keyint=25 / keyint=250 / bframes=4 / b-adapt=0 / b-pyramid / bframe-bias=0 / rc-lookahead=15 / lookahead-slices=0 / scenecut=40 / no-intra-refresh / ctu=64 / min-cu-size=8 / no-rect / no-amp / max-tu-size=32 / tu-inter-depth=1 / tu-intra-depth=1 / limit-tu=0 / rdoq-level=0 / dynamic-rd=0,00 / no-ssim-rd / signhide / no-tskip / nr-intra=0 / nr-inter=0 / no-constrained-intra / strong-intra-smoothing / max-merge=2 / limit-refs=3 / no-limit-modes / me=1 / subme=1 / merange=57 / temporal-mvp / weightp / no-weightb / no-analyze-src-pics / deblock=0:0 / sao / no-sao-non-deblock / rd=2 / early-skip / rskip / fast-intra / no-tskip-fast / no-cu-lossless / no-b-intra / no-splitrd-skip / rdpenalty=0 / psy-rd=2,00 / psy-rdoq=0,00 / no-rd-refine / analysis-reuse-mode=0 / no-lossless / cbqpoffs=0 / crqpoffs=0 / rc=abr / bitrate=2000 / qcomp=0,60 / qpstep=4 / stats-write=0 / stats-read=0 / ipratio=1,40 / pbratio=1,30 / aq-mode=1 / aq-strength=1,00 / cutree / zone-count=0 / no-strict-cbr / qg-size=32 / no-rc-grain / qpmax=69 / qpmin=0 / no-const-vbv / sar=255 / sar-width / : / sar-height=384:355 / overscan=0 / videoformat=5 / range=0 / colorprim=5 / transfer=1 / colormatrix=6 / chromaloc=0 / display-window=0 / max-cll=0,0 / min-luma=0 / max-luma=255 / log2-max-poc-lsb=8 / vui-timing-info / vui-hrd-info / slices=1 / no-opt-qp-pps / no-opt-ref-list-length-pps / no-multi-pass-opt-rps / scenecut-bias=0,05 / no-opt-cu-delta-qp / no-aq-motion / no-hdr / no-hdr-opt / no-dhdr10-opt / analysis-reuse-level=5 / scale-factor=0 / refine-intra=0 / refine-inter=0 / refine-mv=0 / no-limit-sao / ctu-info=0 / no-lowpass-dct / refine-mv-type=0 / copy-pic=1
Default : Yes
Forced : No
Color range : Limited
Color primaries : BT.601 PAL
Transfer characteristics : BT.709
Matrix coefficients : BT.601
Statistics Tags Issue : mkvmerge v24.0.0 ('Beyond The Pale') 64-bit 2018-11-30 04:24:31 / mkvmerge v24.0.0 ('Beyond The Pale') 64-bit 2018-11-30 04:24:31 / UTC 2018-11-29T21:06:55Z
FromStats_BitRate : 2009526
FromStats_Duration : 01:21:49.800000000
FromStats_FrameCount : 122745
FromStats_StreamSize : 1233296721Audio
ID : 2
Format : AC-3
Format/Info : Audio Coding 3
Codec ID : A_AC3
Duration : 1 h 21 min
Bit rate mode : Constant
Bit rate : 256 kb/s
Channel(s) : 2 channels
Channel positions : Front: L R
Sampling rate : 48.0 kHz
Frame rate : 31.250 FPS (1536 SPF)
Bit depth : 16 bits
Compression mode : Lossy
Delay relative to video : -85 ms
Stream size : 150 MiB (11%)
Service kind : Complete Main
Default : Yes
Forced : No
Statistics Tags Issue : mkvmerge v24.0.0 ('Beyond The Pale') 64-bit 2018-11-30 04:24:31 / mkvmerge v24.0.0 ('Beyond The Pale') 64-bit 2018-11-30 04:24:31 / UTC 2018-11-29T21:06:55Z
FromStats_BitRate : 256000
FromStats_Duration : 01:21:48.832000000
FromStats_FrameCount : 153401
FromStats_StreamSize : 157082624Menu
00:00:00.080 : :Chapter 1
00:00:15.200 : :Chapter 2
00:00:52.640 : :Chapter 3
00:04:24.320 : :Chapter 4
00:09:01.040 : :Chapter 5
00:12:41.840 : :Chapter 6
00:13:09.680 : :Chapter 7
00:17:22.640 : :Chapter 8
00:21:19.520 : :Chapter 9
00:21:37.520 : :Chapter 10
00:25:31.280 : :Chapter 11
00:29:26.240 : :Chapter 12
00:30:47.120 : :Chapter 13
00:34:09.920 : :Chapter 14
00:37:28.400 : :Chapter 15
00:41:23.360 : :Chapter 16
00:45:06.800 : :Chapter 17
00:49:37.280 : :Chapter 18
00:56:32.240 : :Chapter 19
00:57:09.440 : :Chapter 20
01:01:20.000 : :Chapter 21
01:05:12.080 : :Chapter 22
01:09:24.560 : :Chapter 23
01:13:06.800 : :Chapter 24
01:17:14.960 : :Chapter 25
01:21:48.320 : :Chapter 26

Скриншоты


Для скачки контента: [Установить программу-клиент] и кликнуть по - СкачатьБезопасность: клиент проверен АВ Касперского

[asmlocator.ru].t593871.torrent 
Торрент: Зарегистрирован [ 2018-12-05 19:30 ] · 55574122C20C96F20A441B80AAA7ABA25A9D33BA

Скачать .torrent

Скачать

52 KB

Статус: проверено
Скачан: 0 раз
Размер: 2,59 GB
terms.php
[Профиль] [ЛС]
Показать сообщения:    
Ответить на тему

Текущее время: 10-Дек 09:49

Часовой пояс: UTC ± 0



Вы не можете начинать темы
Вы не можете отвечать на сообщения
Вы не можете редактировать свои сообщения
Вы не можете удалять свои сообщения
Вы не можете голосовать в опросах
Вы не можете прикреплять файлы к сообщениям
Вы можете скачивать файлы