С значит Семья / F is For Family / Сезон: 3 / Серии: 1-10 из 10 (Лоран Николас / Laurent Nicolas) [2018, США, комедия, драма, сатира, WEB-DL 1080p] MVO (ColdFilm) + Original + Sub (Eng)

Ответить на тему
Статистика раздачи
Размер:  7,32 GB   |    Зарегистрирован:  4 дня   |    Скачан:  0 раз

Полного источника не было: Никогда

 
   
 
 
Автор Сообщение

star21 ®

Пол: Женский

Стаж: 3 года 1 месяц

Сообщений: 552880

Откуда: Екатеринбург

Создавать темы 05-Дек-2018 19:30

[Цитировать]

С Значит Семья
F is for Family
Сезон 3Серии: 1-10 из 10 Страна: США
Производство: Netflix
Жанр: Мультфильм, драма, комедия, сатира
Продолжительность: ~00:26:00
Год выпуска: 2018
Перевод:
  • Профессиональный (многоголосый закадровый) | ColdFilm
  • Оригинальная звуковая дорожка (English)
    Русские субтитры: нет
    Английские субтитры: естьРежиссёр: Лоран НиколасКто не знает Билли Бёрра? Его знают многие. А вот знакомы ли вы с мультфильмом, в основу которого положены его юмористические выступления перед живой публикой. «С значит Семья» - мультипликационные юмористический сериал. Он основан на ностальгических воспоминаниях о семидесятых годах двадцатого века. Те времена известны тем, что оружие носили все и стар и млад, а курить разрешалось не только дома, но и в общественных местах. Рассказ пойдет об одной семейке, которая относится к бедному слою общества. Фрэдди – глава семейства, который выкидывает массу фортелей. И от них страдают и жена, и его дети. Он такой человек, с которым скучать не придется. Он из одной крайности бросается в другую, и все кто это увидит, удержаться от смеха просто не смогут. Все раздачи мультсериалаКачество: WEB-DL 1080p
    Формат: MKV
    Видео: 1920x1080 (16:9) at 23.976 fps, Main@L4, ~3000 kbps avg, ~0.060bpp
    Аудио:
  • Russian: 48 kHz, AC3 Dolby Digital, 2.0 ch, ~192 kbps | Студия ColdFilm [без рекламы]
  • English: 48 kHz, AC3 Dolby Digital, 5.1 ch, ~640 kbps
    Субтитры: English (*.srt)

Подробные технические данные

GeneralGeneralUnique ID                   : 99319767751948095643999100926577917586 (0x4AB84A9E5280DEC3D51ABECB68FCBE92)Complete name               : \F is for Family - Season 3\F.is.for.Family.S03E04.Mr.Murphy's.Wild.Ride.1080p.NF.WEB-DL.DDP5.1.x264-ColdFilm.mkvFormat                      : MatroskaFormat version              : Version 4 / Version 2File size                   : 734 MiBDuration                    : 28 min 4 sOverall bit rate mode       : VariableOverall bit rate            : 3 654 kb/sMovie name                  : Mr. Murphy's Wild RideEncoded date                : UTC 2018-12-05 17:12:56Writing application         : mkvmerge v29.0.0 ('Like It Or Not') 64-bitWriting library             : libebml v1.3.6 + libmatroska v1.4.9Attachments                 : poster.jpgVideoID                          : 1Format                      : AVCFormat/Info                 : Advanced Video CodecFormat profile              : Main@L4Format settings             : CABAC / 3 Ref FramesFormat settings, CABAC      : YesFormat settings, ReFrames   : 3 framesCodec ID                    : V_MPEG4/ISO/AVCDuration                    : 28 min 4 sBit rate mode               : VariableBit rate                    : 2 870 kb/sMaximum bit rate            : 4 305 kb/sWidth                       : 1 920 pixelsHeight                      : 1 080 pixelsDisplay aspect ratio        : 16:9Frame rate mode             : ConstantFrame rate                  : 23.976 (24000/1001) FPSColor space                 : YUVChroma subsampling          : 4:2:0Bit depth                   : 8 bitsScan type                   : ProgressiveBits/(Pixel*Frame)          : 0.058Stream size                 : 566 MiB (77%)Writing library             : x264 core 148 r2715 7e75228Encoding settings           : cabac=1 / ref=3 / deblock=1:0:0 / analyse=0x1:0x111 / me=umh / subme=10 / psy=1 / psy_rd=1.00:0.00 / mixed_ref=1 / me_range=24 / chroma_me=1 / trellis=2 / 8x8dct=0 / cqm=0 / deadzone=21,11 / fast_pskip=1 / chroma_qp_offset=-2 / threads=6 / lookahead_threads=1 / sliced_threads=0 / nr=0 / decimate=1 / interlaced=0 / bluray_compat=0 / stitchable=1 / constrained_intra=0 / bframes=2 / b_pyramid=0 / b_adapt=2 / b_bias=0 / direct=3 / weightb=1 / open_gop=0 / weightp=2 / keyint=48 / keyint_min=25 / scenecut=0 / intra_refresh=0 / rc_lookahead=48 / rc=2pass / mbtree=1 / bitrate=2870 / ratetol=1.0 / qcomp=0.50 / qpmin=6 / qpmax=51 / qpstep=4 / cplxblur=20.0 / qblur=0.5 / vbv_maxrate=4305 / vbv_bufsize=5740 / nal_hrd=vbr / filler=0 / ip_ratio=1.40 / aq=1:1.00Language                    : EnglishDefault                     : YesForced                      : NoAudio #1ID                          : 2Format                      : AC-3Format/Info                 : Audio Coding 3Codec ID                    : A_AC3Duration                    : 28 min 4 sBit rate mode               : ConstantBit rate                    : 192 kb/sChannel(s)                  : 2 channelsChannel positions           : Front: L RSampling rate               : 48.0 kHzFrame rate                  : 31.250 FPS (1536 SPF)Bit depth                   : 16 bitsCompression mode            : LossyStream size                 : 38.5 MiB (5%)Title                       : MVO ColdFilmLanguage                    : RussianService kind                : Complete MainDefault                     : YesForced                      : NoAudio #2ID                          : 3Format                      : E-AC-3Format/Info                 : Enhanced Audio Coding 3Codec ID                    : A_EAC3Duration                    : 28 min 4 sBit rate mode               : ConstantBit rate                    : 640 kb/sChannel(s)                  : 6 channelsChannel positions           : Front: L C R, Side: L R, LFESampling rate               : 48.0 kHzFrame rate                  : 187.500 FPS (256 SPF)Compression mode            : LossyStream size                 : 128 MiB (18%)Title                       : EnglishLanguage                    : EnglishService kind                : Complete MainDefault                     : NoForced                      : NoTextID                          : 4Format                      : UTF-8Codec ID                    : S_TEXT/UTF8Codec ID/Info               : UTF-8 Plain TextDuration                    : 27 min 15 sBit rate                    : 101 b/sCount of elements           : 622Stream size                 : 20.2 KiB (0%)Title                       : English [SDH]Language                    : EnglishDefault                     : NoForced                      : NoMenu00:00:05.000                : en:Chapter 100:02:16.762                : en:Chapter 2

Скриншоты

(Полноразмерные скриншоты открываются кликом по миниатюре)

Список серий

  • Are You Ready for the Summer?
  • Paul Lynde to Block
  • The Stinger
  • Mr. Murphy's Wild Ride
  • Battle of the Sexes
  • Punch Drunk
  • Summer Vacation
  • It's In His Blood
  • Frank the Father
  • Bill Murphy's Night Off
Внимание! В сериале присутствует ненормативная лексика! 18+

Для скачки контента: [Установить программу-клиент] и кликнуть по - СкачатьБезопасность: клиент проверен АВ Касперского

[asmlocator.ru].t593852.torrent 
Торрент: Зарегистрирован [ 2018-12-05 19:30 ] · 5F10CC5DFB68A8ACA8A675B5A5970AF8E5AD1A48

Скачать .torrent

Скачать

20 KB

Статус: проверено
Скачан: 0 раз
Размер: 7,32 GB
terms.php
[Профиль] [ЛС]
Показать сообщения:    
Ответить на тему

Текущее время: 10-Дек 09:48

Часовой пояс: UTC ± 0



Вы не можете начинать темы
Вы не можете отвечать на сообщения
Вы не можете редактировать свои сообщения
Вы не можете удалять свои сообщения
Вы не можете голосовать в опросах
Вы не можете прикреплять файлы к сообщениям
Вы можете скачивать файлы