(House, Deep House, Minimal, Tech House) [102xCD] Label: Fabric - FABRIC Series - 2001-2018, FLAC (tracks+.cue) lossless

Ответить на тему
Статистика раздачи
Размер:  47,08 GB   |    Зарегистрирован:  8 дней   |    Скачан:  0 раз

Полного источника не было: Никогда

 
   
 
 
Автор Сообщение

star21 ®

Пол: Женский

Стаж: 3 года 1 месяц

Сообщений: 552880

Откуда: Екатеринбург

Создавать темы 01-Дек-2018 11:51

[Цитировать]

FABRIC Series Жанр: House, Deep House, Minimal, Tech House
Страна-издатель: UK
Год издания: 2001-2018
Лейбл: Fabric (London)
Аудиокодек: FLAC
Тип рипа: tracks+.cue
Битрейт аудио: lossless
Продолжительность: 125:40:20
Источник (релизер): LOSSLESS FROM DMMANIAC from new-team
Наличие сканов в содержимом раздачи: мало, почти нет (discogs)Fabric расположен на улице Чартерхаус 77a в Лондоне. Клуб занимает отреставрированное помещение Центральной Холодильной Камеры, прямо напротив которой находится знаменитый и последний из лондонских “великих рынков” - Смитфилдский Мясной Рынок. Архитектура района относится к викторианской эпохе, в непосредственной близости от клуба находятся исторические достопримечательности Лондона - Холборн Ваедакт и Флит Воллей Бридж.
После Второй Мировой Войны все жители района мигрировали в предместья Лондона. Здания опустели и в последствии стали исключительно использоваться для коммерческих целей в будние дни. Следуя примеру расположенного поблизости крупного культурного центра Лондона, Барбикан Сентер, Fabric был признан главным толчком для возрождения района, который сейчас стал одним из лучших примеров круглосуточного отдыха в Лондоне.
Клуб, основанный Китом Рейли (Keith Reilly) и Камерон Лесли (Cameron Leslie), был открыт в октябре 1999 года. Внутри находится три отделенные друг от друга помещения с независимыми аудиосистемами. Уникальной особенностью клуба является его вибрирующий пол в Комнате 1.
Так же в клубе находится первый в Европе танцпол, названый "bodysonic", на котором установлена звуковая система с 400 басовыми преобразователями, излучающими низкие частоты с такой силой и чистотой, что клабберы способны в буквальном смысле почувствовать музыку, в действительности сотрясающую все тело.
Всего в Fabric пять аудиосистем и три бара, расположенных на двух уровнях общей площадью 820 квадратных метра.
В клубе проходит две серии вечеринок: пятничные Fabriclive, посвященные музыке с ломаным ритмом, и субботние - Fabric, концепт которых крутится вокруг техно и хаус музыки.
Лайн-апу каждой из вечеринок мог бы позавидовать небольшой фестиваль – за ночь в клубе звучат лайв-выступления и ди-джей сеты от, по меньшей мере, пятнадцати артистов, из которых минимум три человека первой величины на мировой электронной сцене.
Всемирную же известность и культовый статус клубу принес, запущен на его основе, лейбл Fabric (London), на котором выходят ди-джейские миксы самых влиятельных и интересных ди-джеев мира. Диски выходят в двух, одноименных с вечеринками, сериях.
Этот клуб называют самым политизированным из клубных очагов Лондона. В акциях поддержки, проходящих в Fabric, участвовали Gorillaz, Massive Attack, Daft Punk и многие другие.
Резиденты клуба: James Lavelle, Craig Richards, Terry Francis, The Stanton Warriors.

2001 - Craig Richards – Fabric 01

Label/Cat#: Fabric (London) – Fabric1
Country: UK
Year: 05 Nov 2001
Genre: Electronic
Style: Dub, Acid, Deep House, Minimal, Tech House
Format: CD, Mixed, Metal Case, Cardboard Sleeve
Аудиокодек: FLAC (*.flac)
Тип рипа: Tracks+.cue
Продолжительность: 73:40
Источник (релизер): btenvelope (what.cd)
Наличие сканов в содержимом раздачи: нетTracklist
1. Gemini – At That Cafe (04:38)
2. CPEN – Pirate's Life (04:37)
3. Antonelli Electr. – The Realist (04:19)
4. Dub Tech Soundsystem – Sugar Rush (03:04)
5. Jamie Anderson – Montage (04:52)
6. SCSI-9 – Cozmoport (03:58)
7. SCSI-9 – Cologne (03:33)
8. Lo-Kee – Sinners (05:33)
9. Ernst Viebeg – Nightlife (04:30)
10. Bushwacka! – Bluntski (04:57)
11. Swag – Drum Hydraulics (04:38)
12. Roman IV – (14x7x4) (06:32)
13. Wavescape – Silicon Jazz (05:41)
14. Terry Francis – Took From Me (04:57)
15. Helmet – Early Riser (04:50)
16. Schatrax – Mispent Years (02:53)More information:

Лог создания рипа

Exact Audio Copy V0.99 prebeta 4 from 23. January 2008EAC extraction logfile from 14. August 2009, 9:04Various / Fabric 01Used drive  : HL-DT-STBDDVDRW GGC-H20L   Adapter: 2  ID: 1Read mode               : SecureUtilize accurate stream : YesDefeat audio cache      : YesMake use of C2 pointers : NoRead offset correction                      : 667Overread into Lead-In and Lead-Out          : NoFill up missing offset samples with silence : YesDelete leading and trailing silent blocks   : NoNull samples used in CRC calculations       : YesUsed interface                              : Native Win32 interface for Win NT & 2000Gap handling                                : Appended to previous trackUsed output format              : User Defined EncoderSelected bitrate                : 320 kBit/sQuality                         : HighAdd ID3 tag                     : NoCommand line compressor         : C:\Programme\Exact Audio Copy\Flac\flac.exeAdditional command line options : -V -8 -T "artist=%a" -T "title=%t" -T "album=%g" -T "date=%y" -T "tracknumber=%n" -T "genre=%m" %sTOC of the extracted CD     Track |   Start  |  Length  | Start sector | End sector    ---------------------------------------------------------        1  |  0:00.00 |  4:38.37 |         0    |    20886        2  |  4:38.37 |  4:37.08 |     20887    |    41669        3  |  9:15.45 |  4:19.57 |     41670    |    61151        4  | 13:35.27 |  3:04.65 |     61152    |    75016        5  | 16:40.17 |  4:52.63 |     75017    |    96979        6  | 21:33.05 |  3:58.22 |     96980    |   114851        7  | 25:31.27 |  3:33.30 |    114852    |   130856        8  | 29:04.57 |  5:33.10 |    130857    |   155841        9  | 34:37.67 |  4:30.18 |    155842    |   176109       10  | 39:08.10 |  4:57.57 |    176110    |   198441       11  | 44:05.67 |  4:38.53 |    198442    |   219344       12  | 48:44.45 |  6:32.07 |    219345    |   248751       13  | 55:16.52 |  5:41.40 |    248752    |   274366       14  | 60:58.17 |  4:57.65 |    274367    |   296706       15  | 65:56.07 |  4:50.65 |    296707    |   318521       16  | 70:46.72 |  2:53.05 |    318522    |   331501Track  1     Filename D:\EAC\01 - Gemini - At That Cafe.wav     Pre-gap length  0:00:02.00     Peak level 96.9 %     Track quality 100.0 %     Test CRC 3F12A335     Copy CRC 3F12A335     Accurately ripped (confidence 5)  [DF69F8FD]     Copy OKTrack  2     Filename D:\EAC\02 - CPEN - Pirates Life.wav     Peak level 96.8 %     Track quality 100.0 %     Test CRC E358700A     Copy CRC E358700A     Accurately ripped (confidence 5)  [0880989D]     Copy OKTrack  3     Filename D:\EAC\03 - Antonelli Electr. - Dubby Disco.wav     Peak level 97.0 %     Track quality 100.0 %     Test CRC BB581FC2     Copy CRC BB581FC2     Accurately ripped (confidence 5)  [74CFA27A]     Copy OKTrack  4     Filename D:\EAC\04 - Dub Tech Soundsystem - Sugar Rush.wav     Peak level 97.5 %     Track quality 100.0 %     Test CRC 1A5E7D66     Copy CRC 1A5E7D66     Accurately ripped (confidence 5)  [0B16EF49]     Copy OKTrack  5     Filename D:\EAC\05 - Jamie Anderson - Montage.wav     Peak level 96.9 %     Track quality 100.0 %     Test CRC 11C638BE     Copy CRC 11C638BE     Accurately ripped (confidence 5)  [C6F66392]     Copy OKTrack  6     Filename D:\EAC\06 - SCSI-9 - Cozmoport.wav     Peak level 97.9 %     Track quality 100.0 %     Test CRC 2909AC41     Copy CRC 2909AC41     Accurately ripped (confidence 5)  [BD937733]     Copy OKTrack  7     Filename D:\EAC\07 - SCSI-9 - Cologne.wav     Peak level 96.5 %     Track quality 100.0 %     Test CRC 28586867     Copy CRC 28586867     Accurately ripped (confidence 5)  [2F654A7D]     Copy OKTrack  8     Filename D:\EAC\08 - Lo-kee - Sinners.wav     Peak level 98.2 %     Track quality 100.0 %     Test CRC 1597967E     Copy CRC 1597967E     Accurately ripped (confidence 5)  [3099C2D4]     Copy OKTrack  9     Filename D:\EAC\09 - Ernst Viebeg - Nightlife.wav     Peak level 98.8 %     Track quality 100.0 %     Test CRC 301128EB     Copy CRC 301128EB     Accurately ripped (confidence 5)  [CBDEEF7F]     Copy OKTrack 10     Filename D:\EAC\10 - Bushwacka! - Bluntski.wav     Peak level 97.2 %     Track quality 100.0 %     Test CRC 6E6AC51D     Copy CRC 6E6AC51D     Accurately ripped (confidence 5)  [608632C1]     Copy OKTrack 11     Filename D:\EAC\11 - Swag - Drum Hydraulics.wav     Peak level 96.3 %     Track quality 100.0 %     Test CRC 7DFADE8A     Copy CRC 7DFADE8A     Accurately ripped (confidence 5)  [DE01D90E]     Copy OKTrack 12     Filename D:\EAC\12 - Roman IV - 14x7x4.wav     Peak level 97.9 %     Track quality 100.0 %     Test CRC 66C94CF8     Copy CRC 66C94CF8     Accurately ripped (confidence 5)  [8C39BD98]     Copy OKTrack 13     Filename D:\EAC\13 - Wavescape - Slilcon Jaxx.wav     Peak level 96.5 %     Track quality 100.0 %     Test CRC A99D2A55     Copy CRC A99D2A55     Accurately ripped (confidence 5)  [FB40CBBA]     Copy OKTrack 14     Filename D:\EAC\14 - Terry Francis - Took From Me.wav     Peak level 97.7 %     Track quality 99.9 %     Test CRC 23B84DEB     Copy CRC 23B84DEB     Accurately ripped (confidence 5)  [666BAEA5]     Copy OKTrack 15     Filename D:\EAC\15 - Helmet - Early Riser.wav     Peak level 97.4 %     Track quality 99.9 %     Test CRC CC59C8CE     Copy CRC CC59C8CE     Accurately ripped (confidence 5)  [E4A12553]     Copy OKTrack 16     Filename D:\EAC\16 - Schatrax - Mispent Years.wav     Peak level 95.6 %     Track quality 100.0 %     Test CRC 8E70B171     Copy CRC 8E70B171     Accurately ripped (confidence 5)  [72EF398E]     Copy OKAll tracks accurately rippedNo errors occurredEnd of status report

Содержание индексной карты (.CUE)

REM GENRE ElectronicREM DATE 2001REM DISCID EA114410REM COMMENT ExactAudioCopy v0.99pb4PERFORMER "Various Artists"TITLE "Fabric 01 - Craig Richards"FILE "01 - Gemini - At That Cafe.wav" WAVE  TRACK 01 AUDIO    TITLE "At That Cafe"    PERFORMER "Gemini"    INDEX 01 00:00:00FILE "02 - CPEN - Pirates Life.wav" WAVE  TRACK 02 AUDIO    TITLE "Pirates Life"    PERFORMER "CPEN"    INDEX 01 00:00:00FILE "03 - Antonelli Electr. - Dubby Disco.wav" WAVE  TRACK 03 AUDIO    TITLE "Dubby Disco"    PERFORMER "Antonelli Electr."    INDEX 01 00:00:00FILE "04 - Dub Tech Soundsystem - Sugar Rush.wav" WAVE  TRACK 04 AUDIO    TITLE "Sugar Rush"    PERFORMER "Dub Tech Soundsystem"    INDEX 01 00:00:00FILE "05 - Jamie Anderson - Montage.wav" WAVE  TRACK 05 AUDIO    TITLE "Montage"    PERFORMER "Jamie Anderson"    INDEX 01 00:00:00FILE "06 - SCSI-9 - Cozmoport.wav" WAVE  TRACK 06 AUDIO    TITLE "Cozmoport"    PERFORMER "SCSI-9"    INDEX 01 00:00:00FILE "07 - SCSI-9 - Cologne.wav" WAVE  TRACK 07 AUDIO    TITLE "Cologne"    PERFORMER "SCSI-9"    INDEX 01 00:00:00FILE "08 - Lo-kee - Sinners.wav" WAVE  TRACK 08 AUDIO    TITLE "Sinners"    PERFORMER "Lo-kee"    INDEX 01 00:00:00FILE "09 - Ernst Viebeg - Nightlife.wav" WAVE  TRACK 09 AUDIO    TITLE "Nightlife"    PERFORMER "Ernst Viebeg"    INDEX 01 00:00:00FILE "10 - Bushwacka! - Bluntski.wav" WAVE  TRACK 10 AUDIO    TITLE "Bluntski"    PERFORMER "Bushwacka!"    INDEX 01 00:00:00FILE "11 - Swag - Drum Hydraulics.wav" WAVE  TRACK 11 AUDIO    TITLE "Drum Hydraulics"    PERFORMER "Swag"    INDEX 01 00:00:00FILE "12 - Roman IV - 14x7x4.wav" WAVE  TRACK 12 AUDIO    TITLE "14x7x4"    PERFORMER "Roman IV"    INDEX 01 00:00:00FILE "13 - Wavescape - Slilcon Jaxx.wav" WAVE  TRACK 13 AUDIO    TITLE "Slilcon Jaxx"    PERFORMER "Wavescape"    INDEX 01 00:00:00FILE "14 - Terry Francis - Took From Me.wav" WAVE  TRACK 14 AUDIO    TITLE "Took From Me"    PERFORMER "Terry Francis"    INDEX 01 00:00:00FILE "15 - Helmet - Early Riser.wav" WAVE  TRACK 15 AUDIO    TITLE "Early Riser"    PERFORMER "Helmet"    INDEX 01 00:00:00FILE "16 - Schatrax - Mispent Years.wav" WAVE  TRACK 16 AUDIO    TITLE "Mispent Years"    PERFORMER "Schatrax"    INDEX 01 00:00:00

2002 - Terry Francis – Fabric 02

Label/Cat#: Fabric (London) – FABRIC 03
Country: UK
Year: Jan 2002
Genre: Electronic
Style: Deep House, Minimal, Tech House
Format: CD, Mixed
Аудиокодек: FLAC (*.flac)
Тип рипа: Tracks+.cue
Продолжительность: 70:00
Источник (релизер): Тюмен (rutracker)
Наличие сканов в содержимом раздачи: нетTracklist
1. Chateau Flight – Welcome (Welcapella) (00:59)
2. Norken – East (02:54)
3. The Logic Box – Morph Cross (05:48)
4. Outa The Blue – R Change U (05:04)
5. Floppy Sounds – Doing Shows (03:22)
6. Gruvhaus – Frostreet (03:35)
7. SD Grooves – Red Leather (03:50)
8. DJ Buck – Ode To Mad Marj (03:21)
9. Eddie Richards – Oyea (04:19)
10. Gideon Jackson – Ooh Yi Yi (05:30)
11. Combustible – D & D Gold (04:53)
12. Dark Male – Night Life (Asad's Silverlining Remix) (05:14)
13. Filth – Dancin' (03:34)
14. Universal Agents – Lemon Pie (Dub) (03:20)
15. Blakkat – Deeper (BlakDoktor Mix) (07:23)
16. Haris & Stubbs – My Love (06:46)More information:

Лог создания рипа

Exact Audio Copy V0.99 prebeta 4 from 23. January 2008EAC extraction logfile from 28. December 2008, 17:30Various Artists / Fabric 02 Terry FrancisUsed drive  : ATAPI   DVD DW 8X16X8X16   Adapter: 3  ID: 0Read mode               : SecureUtilize accurate stream : YesDefeat audio cache      : YesMake use of C2 pointers : NoRead offset correction                      : 618Overread into Lead-In and Lead-Out          : NoFill up missing offset samples with silence : YesDelete leading and trailing silent blocks   : NoNull samples used in CRC calculations       : YesUsed interface                              : Installed external ASPI interfaceGap handling                                : Appended to previous trackUsed output format              : User Defined EncoderSelected bitrate                : 896 kBit/sQuality                         : HighAdd ID3 tag                     : NoCommand line compressor         : C:\Program Files\[FLAC-EAC]\flac.exeAdditional command line options : -8 -A tukey(0.25) -A gauss(0.1875) -b 4096 -V -T "artist=%a" -T "title=%t" -T "album=%g" -T "date=%y" -T "tracknumber=%n" -T "genre=%m" %s --sector-alignTOC of the extracted CD     Track |   Start  |  Length  | Start sector | End sector    ---------------------------------------------------------        1  |  0:00.00 |  0:59.28 |         0    |     4452        2  |  0:59.28 |  2:54.28 |      4453    |    17530        3  |  3:53.56 |  5:48.05 |     17531    |    43635        4  |  9:41.61 |  5:04.24 |     43636    |    66459        5  | 14:46.10 |  3:22.35 |     66460    |    81644        6  | 18:08.45 |  3:35.49 |     81645    |    97818        7  | 21:44.19 |  3:50.60 |     97819    |   115128        8  | 25:35.04 |  3:21.64 |    115129    |   130267        9  | 28:56.68 |  4:19.35 |    130268    |   149727       10  | 33:16.28 |  5:30.33 |    149728    |   174510       11  | 38:46.61 |  4:53.48 |    174511    |   196533       12  | 43:40.34 |  5:14.49 |    196534    |   220132       13  | 48:55.08 |  3:34.37 |    220133    |   236219       14  | 52:29.45 |  3:20.00 |    236220    |   251219       15  | 55:49.45 |  7:23.42 |    251220    |   284486       16  | 63:13.12 |  6:46.39 |    284487    |   314975Track  1     Filename C:\MUSiC RiPZ FOLDER\EAC\Rips\Various Artists - 2002 - Fabric 02 Terry Francis\01 - Chateau Flight - Welcome.wav     Pre-gap length  0:00:02.00     Peak level 100.0 %     Track quality 100.0 %     Test CRC 21A0DFFD     Copy CRC 21A0DFFD     Accurately ripped (confidence 5)  [CCE57278]     Copy OKTrack  2     Filename C:\MUSiC RiPZ FOLDER\EAC\Rips\Various Artists - 2002 - Fabric 02 Terry Francis\02 - Norken - East.wav     Peak level 100.0 %     Track quality 100.0 %     Test CRC 14944690     Copy CRC 14944690     Accurately ripped (confidence 5)  [6A0178FA]     Copy OKTrack  3     Filename C:\MUSiC RiPZ FOLDER\EAC\Rips\Various Artists - 2002 - Fabric 02 Terry Francis\03 - The Logic Box - Morph Cross.wav     Peak level 100.0 %     Track quality 100.0 %     Test CRC 5AB520BD     Copy CRC 5AB520BD     Accurately ripped (confidence 5)  [32E6AE82]     Copy OKTrack  4     Filename C:\MUSiC RiPZ FOLDER\EAC\Rips\Various Artists - 2002 - Fabric 02 Terry Francis\04 - Outa The Blue - R Change U.wav     Peak level 100.0 %     Track quality 100.0 %     Test CRC FB9A4D8D     Copy CRC FB9A4D8D     Accurately ripped (confidence 5)  [89520FA1]     Copy OKTrack  5     Filename C:\MUSiC RiPZ FOLDER\EAC\Rips\Various Artists - 2002 - Fabric 02 Terry Francis\05 - Floppy Sounds - Doing Shows.wav     Peak level 100.0 %     Track quality 100.0 %     Test CRC 4B255ED3     Copy CRC 4B255ED3     Accurately ripped (confidence 5)  [A3222544]     Copy OKTrack  6     Filename C:\MUSiC RiPZ FOLDER\EAC\Rips\Various Artists - 2002 - Fabric 02 Terry Francis\06 - Gruvhaus - Frostreet.wav     Peak level 100.0 %     Track quality 100.0 %     Test CRC 201B2673     Copy CRC 201B2673     Accurately ripped (confidence 5)  [6424560B]     Copy OKTrack  7     Filename C:\MUSiC RiPZ FOLDER\EAC\Rips\Various Artists - 2002 - Fabric 02 Terry Francis\07 - SD Grooves - Red Leather.wav     Peak level 100.0 %     Track quality 100.0 %     Test CRC 802CB655     Copy CRC 802CB655     Accurately ripped (confidence 5)  [187FD20A]     Copy OKTrack  8     Filename C:\MUSiC RiPZ FOLDER\EAC\Rips\Various Artists - 2002 - Fabric 02 Terry Francis\08 - DJ Buck - Ode To Mad Marj.wav     Peak level 100.0 %     Track quality 100.0 %     Test CRC 49E2B872     Copy CRC 49E2B872     Accurately ripped (confidence 5)  [21BE73B7]     Copy OKTrack  9     Filename C:\MUSiC RiPZ FOLDER\EAC\Rips\Various Artists - 2002 - Fabric 02 Terry Francis\09 - Eddie Richards - Oyea.wav     Peak level 100.0 %     Track quality 100.0 %     Test CRC 705F39E1     Copy CRC 705F39E1     Accurately ripped (confidence 5)  [60894B17]     Copy OKTrack 10     Filename C:\MUSiC RiPZ FOLDER\EAC\Rips\Various Artists - 2002 - Fabric 02 Terry Francis\10 - Gideon Jackson - Ooh Yi Yi.wav     Peak level 100.0 %     Track quality 100.0 %     Test CRC 7532505D     Copy CRC 7532505D     Accurately ripped (confidence 5)  [649283C4]     Copy OKTrack 11     Filename C:\MUSiC RiPZ FOLDER\EAC\Rips\Various Artists - 2002 - Fabric 02 Terry Francis\11 - Take Away - D & D Gold.wav     Peak level 100.0 %     Track quality 100.0 %     Test CRC 6B243FAD     Copy CRC 6B243FAD     Accurately ripped (confidence 5)  [2707931E]     Copy OKTrack 12     Filename C:\MUSiC RiPZ FOLDER\EAC\Rips\Various Artists - 2002 - Fabric 02 Terry Francis\12 - Dark Male - Night Life.wav     Peak level 100.0 %     Track quality 100.0 %     Test CRC 94B3E651     Copy CRC 94B3E651     Accurately ripped (confidence 5)  [36333652]     Copy OKTrack 13     Filename C:\MUSiC RiPZ FOLDER\EAC\Rips\Various Artists - 2002 - Fabric 02 Terry Francis\13 - Filth - Dancin.wav     Peak level 99.3 %     Track quality 99.9 %     Test CRC C003549C     Copy CRC C003549C     Accurately ripped (confidence 5)  [B1A1F3E5]     Copy OKTrack 14     Filename C:\MUSiC RiPZ FOLDER\EAC\Rips\Various Artists - 2002 - Fabric 02 Terry Francis\14 - Universal Agents - Lemon Pie.wav     Peak level 100.0 %     Track quality 100.0 %     Test CRC 7054A919     Copy CRC 7054A919     Accurately ripped (confidence 5)  [03EC77A9]     Copy OKTrack 15     Filename C:\MUSiC RiPZ FOLDER\EAC\Rips\Various Artists - 2002 - Fabric 02 Terry Francis\15 - Blakkat feat. Mark Bell - Deep.wav     Peak level 100.0 %     Track quality 100.0 %     Test CRC 9A58E40A     Copy CRC 9A58E40A     Accurately ripped (confidence 5)  [DB305CCD]     Copy OKTrack 16     Filename C:\MUSiC RiPZ FOLDER\EAC\Rips\Various Artists - 2002 - Fabric 02 Terry Francis\16 - Haris and Stubbs - My Love.wav     Peak level 100.0 %     Track quality 100.0 %     Test CRC E24EB16D     Copy CRC E24EB16D     Accurately ripped (confidence 5)  [211313C1]     Copy OKAll tracks accurately rippedNo errors occurredEnd of status report

Содержание индексной карты (.CUE)

REM GENRE HouseREM DATE 2002REM DISCID EB106710REM COMMENT "ExactAudioCopy v0.99pb4"PERFORMER "Various Artists"TITLE "Fabric 02 Terry Francis"FILE "01 - Chateau Flight - Welcome.wav" WAVE  TRACK 01 AUDIO    TITLE "Welcome"    PERFORMER "Chateau Flight"    FLAGS DCP    INDEX 01 00:00:00FILE "02 - Norken - East.wav" WAVE  TRACK 02 AUDIO    TITLE "East"    PERFORMER "Norken"    FLAGS DCP    INDEX 01 00:00:00FILE "03 - The Logic Box - Morph Cross.wav" WAVE  TRACK 03 AUDIO    TITLE "Morph Cross"    PERFORMER "The Logic Box"    FLAGS DCP    INDEX 01 00:00:00FILE "04 - Outa The Blue - R Change U.wav" WAVE  TRACK 04 AUDIO    TITLE "R Change U"    PERFORMER "Outa The Blue"    FLAGS DCP    INDEX 01 00:00:00FILE "05 - Floppy Sounds - Doing Shows.wav" WAVE  TRACK 05 AUDIO    TITLE "Doing Shows"    PERFORMER "Floppy Sounds"    FLAGS DCP    INDEX 01 00:00:00FILE "06 - Gruvhaus - Frostreet.wav" WAVE  TRACK 06 AUDIO    TITLE "Frostreet"    PERFORMER "Gruvhaus"    FLAGS DCP    INDEX 01 00:00:00FILE "07 - SD Grooves - Red Leather.wav" WAVE  TRACK 07 AUDIO    TITLE "Red Leather"    PERFORMER "SD Grooves"    FLAGS DCP    INDEX 01 00:00:00FILE "08 - DJ Buck - Ode To Mad Marj.wav" WAVE  TRACK 08 AUDIO    TITLE "Ode To Mad Marj"    PERFORMER "DJ Buck"    FLAGS DCP    INDEX 01 00:00:00FILE "09 - Eddie Richards - Oyea.wav" WAVE  TRACK 09 AUDIO    TITLE "Oyea"    PERFORMER "Eddie Richards"    FLAGS DCP    INDEX 01 00:00:00FILE "10 - Gideon Jackson - Ooh Yi Yi.wav" WAVE  TRACK 10 AUDIO    TITLE "Ooh Yi Yi"    PERFORMER "Gideon Jackson"    FLAGS DCP    INDEX 01 00:00:00FILE "11 - Take Away - D & D Gold.wav" WAVE  TRACK 11 AUDIO    TITLE "D & D Gold"    PERFORMER "Take Away"    FLAGS DCP    INDEX 01 00:00:00FILE "12 - Dark Male - Night Life.wav" WAVE  TRACK 12 AUDIO    TITLE "Night Life"    PERFORMER "Dark Male"    FLAGS DCP    INDEX 01 00:00:00FILE "13 - Filth - Dancin.wav" WAVE  TRACK 13 AUDIO    TITLE "Dancin"    PERFORMER "Filth"    FLAGS DCP    INDEX 01 00:00:00FILE "14 - Universal Agents - Lemon Pie.wav" WAVE  TRACK 14 AUDIO    TITLE "Lemon Pie"    PERFORMER "Universal Agents"    FLAGS DCP    INDEX 01 00:00:00FILE "15 - Blakkat feat. Mark Bell - Deep.wav" WAVE  TRACK 15 AUDIO    TITLE "Deep"    PERFORMER "Blakkat feat. Mark Bell"    FLAGS DCP    INDEX 01 00:00:00FILE "16 - Haris and Stubbs - My Love.wav" WAVE  TRACK 16 AUDIO    TITLE "My Love"    PERFORMER "Haris and Stubbs"    FLAGS DCP    INDEX 01 00:00:00

2002 - Jon Marsh – Fabric 03

Label/Cat#: Fabric (London) – FABRIC 05
Country: UK
Year: 2002
Genre: Electronic
Style: House
Format: CD, Mixed
Аудиокодек: FLAC (*.flac)
Тип рипа: Tracks+.cue
Продолжительность: 73:20
Источник (релизер): EggZenBeanz (what.cd)
Наличие сканов в содержимом раздачи: нетTracklist
1. West Magnetic – Blue Royal (05:24)
2. Le Grande Boofant – G String Underbeard (05:23)
3. Erro – Change For Me (Akabu Dub) (06:06)
4. Mochico – Mochico 3.5 (DJ Evil P Remix) (03:17)
5. Spook – Feel Up (06:24)
6. Solo & Logan – Damynatrybe (04:45)
7. Phillip Charles – Elektrik Dreams (Deep C & Randall Jones Remix) (06:35)
8. The Beard Presents Soul Sista – Only You (04:56)
9. Brothers Love Dubs – 1-800 Ming (Rui Da Silva Remix) (10:23)
10. Papa Washington Trio – Calling All Dancers (05:56)
11. $16 Million Man – Pink Yo Black (Live In SW15 Mix) (05:10)
12. Phil Weeks & Hector Moralez – Time To Yourself (02:32)
13. Alexander East – Jest 4 Me (BHQ Vocal Dub) (06:21)More information:

Лог создания рипа

Exact Audio Copy V0.99 prebeta 4 from 23. January 2008EAC extraction logfile from 18. February 2009, 21:32Various Artists / Fabric 03 Jon MarshUsed drive  : TSSTcorpCDDVDW TS-L633L   Adapter: 1  ID: 0Read mode               : SecureUtilize accurate stream : YesDefeat audio cache      : YesMake use of C2 pointers : NoRead offset correction                      : 6Overread into Lead-In and Lead-Out          : NoFill up missing offset samples with silence : YesDelete leading and trailing silent blocks   : NoNull samples used in CRC calculations       : YesUsed interface                              : Native Win32 interface for Win NT & 2000Gap handling                                : Appended to previous trackUsed output format              : User Defined EncoderSelected bitrate                : 128 kBit/sQuality                         : HighAdd ID3 tag                     : NoCommand line compressor         : C:\Program Files\Exact Audio Copy\Flac\flac.exeAdditional command line options : -V -8 -T "artist=%a" -T "title=%t" -T "album=%g" -T "date=%y" -T "tracknumber=%n" -T "genre=%m" %sTOC of the extracted CD     Track |   Start  |  Length  | Start sector | End sector    ---------------------------------------------------------        1  |  0:00.00 |  5:24.40 |         0    |    24339        2  |  5:24.40 |  5:23.57 |     24340    |    48621        3  | 10:48.22 |  6:06.53 |     48622    |    76124        4  | 16:55.00 |  3:17.65 |     76125    |    90964        5  | 20:12.65 |  6:24.55 |     90965    |   119819        6  | 26:37.45 |  4:45.05 |    119820    |   141199        7  | 31:22.50 |  6:35.32 |    141200    |   170856        8  | 37:58.07 |  4:56.73 |    170857    |   193129        9  | 42:55.05 | 10:23.65 |    193130    |   239919       10  | 53:18.70 |  5:56.25 |    239920    |   266644       11  | 59:15.20 |  5:10.57 |    266645    |   289951       12  | 64:26.02 |  2:32.15 |    289952    |   301366       13  | 66:58.17 |  6:21.30 |    301367    |   329971Track  1     Filename D:\EACrips\01. Various Artists - Blue Royal.wav     Pre-gap length  0:00:02.00     Peak level 97.5 %     Track quality 100.0 %     Test CRC 75E0C8BB     Copy CRC 75E0C8BB     Accurately ripped (confidence 4)  [8DDB2592]     Copy OKTrack  2     Filename D:\EACrips\02. Various Artists - G String Underbeard.wav     Peak level 96.4 %     Track quality 99.9 %     Test CRC 9ABA7C3B     Copy CRC 9ABA7C3B     Accurately ripped (confidence 4)  [B84D90D9]     Copy OKTrack  3     Filename D:\EACrips\03. Various Artists - Change For Me (Akabu Dub).wav     Peak level 98.8 %     Track quality 100.0 %     Test CRC 1AD45913     Copy CRC 1AD45913     Accurately ripped (confidence 4)  [199C5152]     Copy OKTrack  4     Filename D:\EACrips\04. Various Artists - Mochico 3.5 (DJ Evil P Remix).wav     Peak level 97.1 %     Track quality 100.0 %     Test CRC BA856069     Copy CRC BA856069     Accurately ripped (confidence 4)  [819C065F]     Copy OKTrack  5     Filename D:\EACrips\05. Various Artists - Feel Up.wav     Peak level 97.3 %     Track quality 100.0 %     Test CRC 1128600C     Copy CRC 1128600C     Accurately ripped (confidence 4)  [F249019C]     Copy OKTrack  6     Filename D:\EACrips\06. Various Artists - Damynatrybe.wav     Peak level 97.9 %     Track quality 100.0 %     Test CRC 78542891     Copy CRC 78542891     Accurately ripped (confidence 4)  [9447D65F]     Copy OKTrack  7     Filename D:\EACrips\07. Various Artists - Elektrik Dreams (Deep C & Randall Jones Remix).wav     Peak level 96.1 %     Track quality 100.0 %     Test CRC FEDB828D     Copy CRC FEDB828D     Accurately ripped (confidence 4)  [310FE475]     Copy OKTrack  8     Filename D:\EACrips\08. Various Artists - Only You.wav     Peak level 96.3 %     Track quality 100.0 %     Test CRC 627B86E4     Copy CRC 627B86E4     Accurately ripped (confidence 4)  [759F404F]     Copy OKTrack  9     Filename D:\EACrips\09. Various Artists - 1-800 Ming (Rui Da Silva Remix).wav     Peak level 97.0 %     Track quality 100.0 %     Test CRC 67954B28     Copy CRC 67954B28     Accurately ripped (confidence 4)  [9B5E2846]     Copy OKTrack 10     Filename D:\EACrips\10. Various Artists - Calling All Dancers.wav     Peak level 98.5 %     Track quality 100.0 %     Test CRC 69DFB90A     Copy CRC 69DFB90A     Accurately ripped (confidence 4)  [BBCF5764]     Copy OKTrack 11     Filename D:\EACrips\11. Various Artists - Pink Yo Black (Live In SW15 Mix).wav     Peak level 97.1 %     Track quality 100.0 %     Test CRC DC5DFF9C     Copy CRC DC5DFF9C     Accurately ripped (confidence 4)  [1F87E950]     Copy OKTrack 12     Filename D:\EACrips\12. Various Artists - Time To Yourself.wav     Peak level 97.9 %     Track quality 100.0 %     Test CRC BF9C26BB     Copy CRC BF9C26BB     Accurately ripped (confidence 4)  [FB13437D]     Copy OKTrack 13     Filename D:\EACrips\13. Various Artists - Jest 4 Me (BHQ Vocal Dub).wav     Peak level 98.7 %     Track quality 100.0 %     Test CRC 4542134E     Copy CRC 4542134E     Accurately ripped (confidence 4)  [975AE6E4]     Copy OKAll tracks accurately rippedNo errors occurredEnd of status report

Содержание индексной карты (.CUE)

REM GENRE ElectronicREM DATE 2002REM DISCID AF112F0DREM COMMENT ExactAudioCopy v0.99pb4PERFORMER "Various Artists"TITLE "Fabric 03 Jon Marsh"FILE "01 - West Magnetic - Blue Royal.wav" WAVE  TRACK 01 AUDIO    TITLE "Blue Royal"    PERFORMER "West Magnetic"    INDEX 01 00:00:00FILE "02 - Le Grande Boofant - G String Underbeard.wav" WAVE  TRACK 02 AUDIO    TITLE "G String Underbeard"    PERFORMER "Le Grande Boofant"    INDEX 01 00:00:00FILE "03 - Erro - Change For Me (Akabu Dub).wav" WAVE  TRACK 03 AUDIO    TITLE "Change For Me (Akabu Dub)"    PERFORMER "Erro"    INDEX 01 00:00:00FILE "04 - Mochico - Mochico 3.5 (DJ Evil P Remix).wav" WAVE  TRACK 04 AUDIO    TITLE "Mochico 3.5 (DJ Evil P Remix)"    PERFORMER "Mochico"    INDEX 01 00:00:00FILE "05 - Spook - Feel Up.wav" WAVE  TRACK 05 AUDIO    TITLE "Feel Up"    PERFORMER "Spook"    INDEX 01 00:00:00FILE "06 - Solo & Logan - Damynatrybe.wav" WAVE  TRACK 06 AUDIO    TITLE "Damynatrybe"    PERFORMER "Solo & Logan"    INDEX 01 00:00:00FILE "07 - Phillip Charles - Elektrik Dreams (Deep C & Randall Jones Remix).wav" WAVE  TRACK 07 AUDIO    TITLE "Elektrik Dreams (Deep C & Randall Jones Remix)"    PERFORMER "Phillip Charles"    INDEX 01 00:00:00FILE "08 - The Beard presents Soul Sista - Only You.wav" WAVE  TRACK 08 AUDIO    TITLE "Only You"    PERFORMER "The Beard presents Soul Sista"    INDEX 01 00:00:00FILE "09 - Brothers Love Dubs - 1-800 Ming (Rui Da Silva Remix).wav" WAVE  TRACK 09 AUDIO    TITLE "1-800 Ming (Rui Da Silva Remix)"    PERFORMER "Brothers Love Dubs"    INDEX 01 00:00:00FILE "10 - Papa Washington Trio - Calling All Dancers.wav" WAVE  TRACK 10 AUDIO    TITLE "Calling All Dancers"    PERFORMER "Papa Washington Trio"    INDEX 01 00:00:00FILE "11 - $16 Million Man - Pink Yo Black (Live In SW15 Mix).wav" WAVE  TRACK 11 AUDIO    TITLE "Pink Yo Black (Live In SW15 Mix)"    PERFORMER "$16 Million Man"    INDEX 01 00:00:00FILE "12 - Phil Weeks & Hector Moralez - Time To Yourself.wav" WAVE  TRACK 12 AUDIO    TITLE "Time To Yourself"    PERFORMER "Phil Weeks & Hector Moralez"    INDEX 01 00:00:00FILE "13 - Alexander East - Jest 4 Me (BHQ Vocal Dub).wav" WAVE  TRACK 13 AUDIO    TITLE "Jest 4 Me (BHQ Vocal Dub)"    PERFORMER "Alexander East"    INDEX 01 00:00:00

2002 - Tony Humphries – Fabric 04

Label/Cat#: Fabric (London) – FABRIC 07
Country: UK
Year: May 2002
Genre: Electronic
Style: House, Garage House
Format: CD, Mixed, Metal Case, Cardboard Sleeve
Аудиокодек: FLAC (*.flac)
Тип рипа: Tracks+.cue
Продолжительность: 73:55
Источник (релизер): Cleveland_Black_Band (what.cd)
Наличие сканов в содержимом раздачи: нетTracklist
1. Lovebirds – Lovebirds (feat. Marie Tweek)
2. DJ Fudge – Tafina
3. Partial Arts – Canopy
4. Yukihiro Fukutomi – Play Back
5. Ad Finem – If You Fall
6. Soldiers Of Twilight – Drive On (Extended Mix)
7. Floppy Sounds – Late Night
8. Dub Taylor – I Can't (You Know)
9. Mimmo M – I Miss You (Air-Knee's Jazz To Face Mix) (feat. Sandy)
10. Househedz Presents Jacque – How Does It Feel ? (U.C. Vocal Mix)
11. Soldiers Of Twilight – Believe
12. Bertrand Burgalat – Sunshine Yellow
13. Projections – Kingsburg
14. Jazztronik – Zoology (Su-Paka-Pooh Mix)More information:

Лог создания рипа

Exact Audio Copy V0.99 prebeta 4 from 23. January 2008EAC extraction logfile from 7. May 2009, 11:20Tony Humphries / Fabric 04: Tony HumphriesUsed drive  : PIONEER DVD-RW  DVR-116D   Adapter: 0  ID: 0Read mode               : SecureUtilize accurate stream : YesDefeat audio cache      : YesMake use of C2 pointers : NoRead offset correction                      : 96Overread into Lead-In and Lead-Out          : NoFill up missing offset samples with silence : YesDelete leading and trailing silent blocks   : NoNull samples used in CRC calculations       : YesUsed interface                              : Native Win32 interface for Win NT & 2000Gap handling                                : Appended to previous trackUsed output format              : User Defined EncoderSelected bitrate                : 320 kBit/sQuality                         : HighAdd ID3 tag                     : NoCommand line compressor         : C:\Program Files\Exact Audio Copy\Flac\flac.exeAdditional command line options : -V -8 -T "artist=%a" -T "title=%t" -T "album=%g" -T "date=%y" -T "tracknumber=%n" -T "genre=%m" %sTOC of the extracted CD     Track |   Start  |  Length  | Start sector | End sector    ---------------------------------------------------------        1  |  0:00.00 |  6:48.12 |         0    |    30611        2  |  6:48.12 |  6:50.30 |     30612    |    61391        3  | 13:38.42 |  4:53.55 |     61392    |    83421        4  | 18:32.22 |  4:00.45 |     83422    |   101466        5  | 22:32.67 |  3:23.43 |    101467    |   116734        6  | 25:56.35 |  4:22.55 |    116735    |   136439        7  | 30:19.15 |  5:30.10 |    136440    |   161199        8  | 35:49.25 |  5:47.52 |    161200    |   187276        9  | 41:37.02 |  4:45.33 |    187277    |   208684       10  | 46:22.35 |  5:46.20 |    208685    |   234654       11  | 52:08.55 |  7:07.32 |    234655    |   266711       12  | 59:16.12 |  4:55.30 |    266712    |   288866       13  | 64:11.42 |  4:08.10 |    288867    |   307476       14  | 68:19.52 |  5:35.15 |    307477    |   332616Track  1     Filename C:\EAC Rips\01 - Lovebirds (Feat. Marie Tweek Of The Rurals) - Lovebirds.wav     Pre-gap length  0:00:02.00     Peak level 98.4 %     Track quality 100.0 %     Test CRC 8BFB8BAD     Copy CRC 8BFB8BAD     Accurately ripped (confidence 3)  [E6A63412]     Copy OKTrack  2     Filename C:\EAC Rips\02 - DJ Fudge - Tafina.wav     Peak level 97.9 %     Track quality 100.0 %     Test CRC D2A0F551     Copy CRC D2A0F551     Accurately ripped (confidence 4)  [143067DD]     Copy OKTrack  3     Filename C:\EAC Rips\03 - Partial Arts - Canopy.wav     Peak level 98.2 %     Track quality 100.0 %     Test CRC 8E3C170C     Copy CRC 8E3C170C     Accurately ripped (confidence 4)  [C156A6D9]     Copy OKTrack  4     Filename C:\EAC Rips\04 - Yukihiro Fukutomi - Play Back.wav     Peak level 97.6 %     Track quality 100.0 %     Test CRC FBDD2E82     Copy CRC FBDD2E82     Accurately ripped (confidence 4)  [226E852B]     Copy OKTrack  5     Filename C:\EAC Rips\05 - Ad Finem - If You Fall.wav     Peak level 98.9 %     Track quality 100.0 %     Test CRC CEB75851     Copy CRC CEB75851     Accurately ripped (confidence 4)  [0F451392]     Copy OKTrack  6     Filename C:\EAC Rips\06 - Soldiers Of Twilight - Drive On.wav     Peak level 99.5 %     Track quality 100.0 %     Test CRC C8587550     Copy CRC C8587550     Accurately ripped (confidence 4)  [BBDD9148]     Copy OKTrack  7     Filename C:\EAC Rips\07 - Floppy Sounds - Late Night.wav     Peak level 96.5 %     Track quality 100.0 %     Test CRC C88A988E     Copy CRC C88A988E     Accurately ripped (confidence 4)  [B9BF806E]     Copy OKTrack  8     Filename C:\EAC Rips\08 - Dub Taylor - I Can't (You Know).wav     Peak level 96.5 %     Track quality 99.9 %     Test CRC 8F9A7E64     Copy CRC 8F9A7E64     Accurately ripped (confidence 3)  [44383EEC]     Copy OKTrack  9     Filename C:\EAC Rips\09 - Mimmo M (Feat. Sandy) - I Miss You (Jazz To Face Mix).wav     Peak level 98.0 %     Track quality 100.0 %     Test CRC 3FBCBF86     Copy CRC 3FBCBF86     Accurately ripped (confidence 3)  [22A9034F]     Copy OKTrack 10     Filename C:\EAC Rips\10 - Househedz Presents Jacque - How Does It Feel  (U.C. Vocal Mix).wav     Peak level 100.0 %     Track quality 100.0 %     Test CRC 9B826E08     Copy CRC 9B826E08     Accurately ripped (confidence 4)  [12C22FBB]     Copy OKTrack 11     Filename C:\EAC Rips\11 - Soldiers Of Twilight - Believe.wav     Peak level 97.8 %     Track quality 100.0 %     Test CRC 4535CFD7     Copy CRC 4535CFD7     Accurately ripped (confidence 4)  [096361D1]     Copy OKTrack 12     Filename C:\EAC Rips\12 - Bertrand Burgalat - Sunshine Yellow.wav     Peak level 97.8 %     Track quality 100.0 %     Test CRC 8CF9255A     Copy CRC 8CF9255A     Accurately ripped (confidence 4)  [8A0C6736]     Copy OKTrack 13     Filename C:\EAC Rips\13 - Projections - Kingsburg.wav     Peak level 97.6 %     Track quality 100.0 %     Test CRC 7FFFC6BF     Copy CRC 7FFFC6BF     Accurately ripped (confidence 4)  [D49E16F5]     Copy OKTrack 14     Filename C:\EAC Rips\14 - Jazztronik - Zoology (Su-Paka-Pooh Mix).wav     Peak level 98.5 %     Track quality 100.0 %     Test CRC 2EB3B4F8     Copy CRC 2EB3B4F8     Accurately ripped (confidence 4)  [FD5101AD]     Copy OKAll tracks accurately rippedNo errors occurredEnd of status report

Содержание индексной карты (.CUE)

REM GENRE HouseREM DATE 2002REM DISCID AF11520EREM COMMENT ExactAudioCopy v0.99pb4PERFORMER "Various Artists"TITLE "Fabric 04: Tony Humphries"FILE "01 - Lovebirds (Feat. Marie Tweek Of The Rurals) - Lovebirds.wav" WAVE  TRACK 01 AUDIO    TITLE "Lovebirds"    PERFORMER "Lovebirds (Feat. Marie Tweek Of The Rurals)"    INDEX 01 00:00:00FILE "02 - DJ Fudge - Tafina.wav" WAVE  TRACK 02 AUDIO    TITLE "Tafina"    PERFORMER "DJ Fudge"    INDEX 01 00:00:00FILE "03 - Partial Arts - Canopy.wav" WAVE  TRACK 03 AUDIO    TITLE "Canopy"    PERFORMER "Partial Arts"    INDEX 01 00:00:00FILE "04 - Yukihiro Fukutomi - Play Back.wav" WAVE  TRACK 04 AUDIO    TITLE "Play Back"    PERFORMER "Yukihiro Fukutomi"    INDEX 01 00:00:00FILE "05 - Ad Finem - If You Fall.wav" WAVE  TRACK 05 AUDIO    TITLE "If You Fall"    PERFORMER "Ad Finem"    INDEX 01 00:00:00FILE "06 - Soldiers Of Twilight - Drive On.wav" WAVE  TRACK 06 AUDIO    TITLE "Drive On"    PERFORMER "Soldiers Of Twilight"    INDEX 01 00:00:00FILE "07 - Floppy Sounds - Late Night.wav" WAVE  TRACK 07 AUDIO    TITLE "Late Night"    PERFORMER "Floppy Sounds"    INDEX 01 00:00:00FILE "08 - Dub Taylor - I Can't (You Know).wav" WAVE  TRACK 08 AUDIO    TITLE "I Can't (You Know)"    PERFORMER "Dub Taylor"    INDEX 01 00:00:00FILE "09 - Mimmo M (Feat. Sandy) - I Miss You (Jazz To Face Mix).wav" WAVE  TRACK 09 AUDIO    TITLE "I Miss You (Jazz To Face Mix)"    PERFORMER "Mimmo M (Feat. Sandy)"    INDEX 01 00:00:00FILE "10 - Househedz Presents Jacque - How Does It Feel  (U.C. Vocal Mix).wav" WAVE  TRACK 10 AUDIO    TITLE "How Does It Feel? (U.C. Vocal Mix)"    PERFORMER "Househedz Presents Jacque"    INDEX 01 00:00:00FILE "11 - Soldiers Of Twilight - Believe.wav" WAVE  TRACK 11 AUDIO    TITLE "Believe"    PERFORMER "Soldiers Of Twilight"    INDEX 01 00:00:00FILE "12 - Bertrand Burgalat - Sunshine Yellow.wav" WAVE  TRACK 12 AUDIO    TITLE "Sunshine Yellow"    PERFORMER "Bertrand Burgalat"    INDEX 01 00:00:00FILE "13 - Projections - Kingsburg.wav" WAVE  TRACK 13 AUDIO    TITLE "Kingsburg"    PERFORMER "Projections"    INDEX 01 00:00:00FILE "14 - Jazztronik - Zoology (Su-Paka-Pooh Mix).wav" WAVE  TRACK 14 AUDIO    TITLE "Zoology (Su-Paka-Pooh Mix)"    PERFORMER "Jazztronik"    INDEX 01 00:00:00

2002 - Pure Science – Fabric 05

Label/Cat#: Fabric (London) – Fabric9
Country: UK
Year: Jul 2002
Genre: Electronic
Style: Tech House
Format: CD, Mixed
Аудиокодек: FLAC (*.flac)
Тип рипа: Tracks+.cue
Продолжительность: 73:59
Источник (релизер): Cleveland_Black_Band (what.cd)
Наличие сканов в содержимом раздачи: нетTracklist
1. Time 2 Bump! (08:09)
2. United By House (05:20)
3. Can You Feel? (05:48)
4. Don't Hide (05:12)
5. I Want U...'Da Muzik' (06:21)
6. The Mind In Rhythm (Concentration Mix) (05:15)
7. Let's Go Back (Can't You Feel It?) (06:05)
8. Bompazee (Deal Me Da Rydim) (05:29)
9. Meez Philosophy (Feel It) (06:17)
10. It Is Innit? (05:22)
11. By The Pool (05:40)
12. La Magica Del Sol (05:21)
13. Our Universe (Galaxy 1172 Outro) (03:39)More Information:

Лог создания рипа

Exact Audio Copy V0.99 prebeta 4 from 23. January 2008EAC extraction logfile from 10. August 2009, 12:31Pure Science / Fabric 05Used drive  : PIONEER DVD-RW  DVR-116D   Adapter: 0  ID: 0Read mode               : SecureUtilize accurate stream : YesDefeat audio cache      : YesMake use of C2 pointers : NoRead offset correction                      : 96Overread into Lead-In and Lead-Out          : NoFill up missing offset samples with silence : YesDelete leading and trailing silent blocks   : NoNull samples used in CRC calculations       : YesUsed interface                              : Native Win32 interface for Win NT & 2000Gap handling                                : Appended to previous trackUsed output format              : User Defined EncoderSelected bitrate                : 320 kBit/sQuality                         : HighAdd ID3 tag                     : NoCommand line compressor         : C:\Program Files\Exact Audio Copy\Flac\flac.exeAdditional command line options : -V -8 -T "artist=%a" -T "title=%t" -T "album=%g" -T "date=%y" -T "tracknumber=%n" -T "genre=%m" %sTOC of the extracted CD     Track |   Start  |  Length  | Start sector | End sector    ---------------------------------------------------------        1  |  0:00.00 |  8:09.17 |         0    |    36691        2  |  8:09.17 |  5:19.55 |     36692    |    60671        3  | 13:28.72 |  5:47.55 |     60672    |    86751        4  | 19:16.52 |  5:12.33 |     86752    |   110184        5  | 24:29.10 |  6:20.50 |    110185    |   138734        6  | 30:49.60 |  5:14.47 |    138735    |   162331        7  | 36:04.32 |  6:05.25 |    162332    |   189731        8  | 42:09.57 |  5:29.08 |    189732    |   214414        9  | 47:38.65 |  6:17.20 |    214415    |   242709       10  | 53:56.10 |  5:21.65 |    242710    |   266849       11  | 59:18.00 |  5:40.37 |    266850    |   292386       12  | 64:58.37 |  5:21.13 |    292387    |   316474       13  | 70:19.50 |  3:39.35 |    316475    |   332934Track  1     Filename C:\EAC Rips\01 - Time 2 Bump!.wav     Pre-gap length  0:00:02.00     Peak level 98.8 %     Track quality 100.0 %     Test CRC D182E31D     Copy CRC D182E31D     Accurately ripped (confidence 9)  [9CEC1688]     Copy OKTrack  2     Filename C:\EAC Rips\02 - United By House.wav     Peak level 99.9 %     Track quality 100.0 %     Test CRC 3676CAB3     Copy CRC 3676CAB3     Accurately ripped (confidence 9)  [E0617BAD]     Copy OKTrack  3     Filename C:\EAC Rips\03 - Can You Feel .wav     Peak level 98.9 %     Track quality 100.0 %     Test CRC C30763BB     Copy CRC C30763BB     Accurately ripped (confidence 9)  [816348DE]     Copy OKTrack  4     Filename C:\EAC Rips\04 - Don't Hide.wav     Peak level 98.1 %     Track quality 100.0 %     Test CRC 57A8FB5D     Copy CRC 57A8FB5D     Cannot be verified as accurate (confidence 6)  [9042C09E], AccurateRip returned [1DA019B9]     Copy OKTrack  5     Filename C:\EAC Rips\05 - I Want U...'Da Muzik'.wav     Peak level 99.5 %     Track quality 100.0 %     Test CRC 662B8C1E     Copy CRC 662B8C1E     Accurately ripped (confidence 8)  [A036EC20]     Copy OKTrack  6     Filename C:\EAC Rips\06 - The Mind In Rhythm.wav     Peak level 99.9 %     Track quality 100.0 %     Test CRC 1877FF9A     Copy CRC 1877FF9A     Accurately ripped (confidence 9)  [9EBB5C8C]     Copy OKTrack  7     Filename C:\EAC Rips\07 - Let's Go Back (Can't You Feel It ).wav     Peak level 99.9 %     Track quality 100.0 %     Test CRC 93AB957B     Copy CRC 93AB957B     Accurately ripped (confidence 9)  [A1685FC1]     Copy OKTrack  8     Filename C:\EAC Rips\08 - Bompazee (Deal Me Da Rydim).wav     Peak level 99.3 %     Track quality 100.0 %     Test CRC 9D4904C2     Copy CRC 9D4904C2     Accurately ripped (confidence 5)  [B099A608]     Copy OKTrack  9     Filename C:\EAC Rips\09 - Meez Philosophy (Feel It).wav     Peak level 99.9 %     Track quality 100.0 %     Test CRC 7D50730F     Copy CRC 7D50730F     Accurately ripped (confidence 5)  [DBBAD634]     Copy OKTrack 10     Filename C:\EAC Rips\10 - It Is Innit .wav     Peak level 99.9 %     Track quality 100.0 %     Test CRC 86A5916A     Copy CRC 86A5916A     Accurately ripped (confidence 5)  [5563B03F]     Copy OKTrack 11     Filename C:\EAC Rips\11 - By The Pool;).wav     Peak level 99.9 %     Track quality 100.0 %     Test CRC F51F1D18     Copy CRC F51F1D18     Accurately ripped (confidence 5)  [16C2570C]     Copy OKTrack 12     Filename C:\EAC Rips\12 - La Magica Del Soul.wav     Peak level 98.9 %     Track quality 100.0 %     Test CRC A95481A9     Copy CRC A95481A9     Accurately ripped (confidence 5)  [739EEDAC]     Copy OKTrack 13     Filename C:\EAC Rips\13 - Our Universe (Galaxy 1172 Outro).wav     Peak level 99.5 %     Track quality 100.0 %     Test CRC D92003ED     Copy CRC D92003ED     Accurately ripped (confidence 6)  [75343B2A]     Copy OK12 track(s) accurately ripped 1 track(s) could not be verified as accurateSome tracks could not be verified as accurateNo errors occurredEnd of status report

Содержание индексной карты (.CUE)

REM GENRE HouseREM DATE 2002REM DISCID A111570DREM COMMENT "ExactAudioCopy v0.99pb4"PERFORMER "Pure Science"TITLE "Fabric 05"FILE "01 - Time 2 Bump!.wav" WAVE  TRACK 01 AUDIO    TITLE "Time 2 Bump!"    PERFORMER "Pure Science"    INDEX 01 00:00:00FILE "02 - United By House.wav" WAVE  TRACK 02 AUDIO    TITLE "United By House"    PERFORMER "Pure Science"    INDEX 01 00:00:00FILE "03 - Can You Feel .wav" WAVE  TRACK 03 AUDIO    TITLE "Can You Feel?"    PERFORMER "Pure Science"    INDEX 01 00:00:00FILE "04 - Don't Hide.wav" WAVE  TRACK 04 AUDIO    TITLE "Don't Hide"    PERFORMER "Pure Science"    INDEX 01 00:00:00FILE "05 - I Want U...'Da Muzik'.wav" WAVE  TRACK 05 AUDIO    TITLE "I Want U...'Da Muzik'"    PERFORMER "Pure Science"    INDEX 01 00:00:00FILE "06 - The Mind In Rhythm.wav" WAVE  TRACK 06 AUDIO    TITLE "The Mind In Rhythm"    PERFORMER "Pure Science"    INDEX 01 00:00:00FILE "07 - Let's Go Back (Can't You Feel It ).wav" WAVE  TRACK 07 AUDIO    TITLE "Let's Go Back (Can't You Feel It?)"    PERFORMER "Pure Science"    INDEX 01 00:00:00FILE "08 - Bompazee (Deal Me Da Rydim).wav" WAVE  TRACK 08 AUDIO    TITLE "Bompazee (Deal Me Da Rydim)"    PERFORMER "Pure Science"    INDEX 01 00:00:00FILE "09 - Meez Philosophy (Feel It).wav" WAVE  TRACK 09 AUDIO    TITLE "Meez Philosophy (Feel It)"    PERFORMER "Pure Science"    INDEX 01 00:00:00FILE "10 - It Is Innit .wav" WAVE  TRACK 10 AUDIO    TITLE "It Is Innit?"    PERFORMER "Pure Science"    INDEX 01 00:00:00FILE "11 - By The Pool;).wav" WAVE  TRACK 11 AUDIO    TITLE "By The Pool;)"    PERFORMER "Pure Science"    INDEX 01 00:00:00FILE "12 - La Magica Del Soul.wav" WAVE  TRACK 12 AUDIO    TITLE "La Magica Del Soul"    PERFORMER "Pure Science"    INDEX 01 00:00:00FILE "13 - Our Universe (Galaxy 1172 Outro).wav" WAVE  TRACK 13 AUDIO    TITLE "Our Universe (Galaxy 1172 Outro)"    PERFORMER "Pure Science"    INDEX 01 00:00:00

2002 - Tyler Stadius – Fabric 06

Label/Cat#: Fabric (London) – FABRIC 11
Country: UK
Year: 02 Sep 2002
Genre: Electronic
Style: House, Deep House, Tech House
Format: CD, Mixed, Metal Case, Cardboard Sleeve
Аудиокодек: FLAC (*.flac)
Тип рипа: Tracks+.cue
Продолжительность: 70:54
Источник (релизер): Тюмен (rutracker)
Наличие сканов в содержимом раздачи: нетTracklist
1. DJ Buck – Legend Of The High Plains Drifter
2. Jay Tripwire – Acid Soul
3. Tribalation – Look Behind Your Eyes
4. DJ Buck – Release The Tension
5. Chus & Ceballos vs. Dano – Deep Architecture
6. Chloe – Another Kind Of Dream
7. Jay Tripwire – All The Swine
8. Jay Tripwire – Allnight
9. Cutlab – Loud Kissin' (Asad Rizvi's Silverlining Smooch Mix)
10. Grant Dell And Bob De Rosa – Letting Go
11. Laid – Punch Up
12. Rhythm & Sound with Cornell Campbell – King In My EmpireMore information:

Лог создания рипа

Exact Audio Copy V0.99 prebeta 5 from 4. May 2009EAC extraction logfile from 1. November 2009, 20:52Various / Fabric 06 Tyler StadiusUsed drive  : LITE-ON CD-RW SOHR-5239V   Adapter: 3  ID: 0Read mode               : SecureUtilize accurate stream : YesDefeat audio cache      : YesMake use of C2 pointers : NoRead offset correction                      : 6Overread into Lead-In and Lead-Out          : NoFill up missing offset samples with silence : YesDelete leading and trailing silent blocks   : NoNull samples used in CRC calculations       : YesUsed interface                              : Installed external ASPI interfaceGap handling                                : Appended to previous trackUsed output format              : User Defined EncoderSelected bitrate                : 1024 kBit/sQuality                         : HighAdd ID3 tag                     : NoCommand line compressor         : C:\Program Files\[FLAC 1 2 1]\flac.exeAdditional command line options : -8 -V -T "ARTIST=%a" -T "TITLE=%t" -T "ALBUM=%g" -T "DATE=%y" -T "TRACKNUMBER=%n" -T "GENRE=%m" -T "COMMENT=EAC FLAC -8" %sTOC of the extracted CD     Track |   Start  |  Length  | Start sector | End sector    ---------------------------------------------------------        1  |  0:00.00 |  4:56.02 |         0    |    22201        2  |  4:56.02 |  5:57.16 |     22202    |    48992        3  | 10:53.18 | 10:25.25 |     48993    |    95892        4  | 21:18.43 |  4:56.67 |     95893    |   118159        5  | 26:15.35 |  5:41.27 |    118160    |   143761        6  | 31:56.62 |  3:29.30 |    143762    |   159466        7  | 35:26.17 |  5:35.34 |    159467    |   184625        8  | 41:01.51 |  5:45.10 |    184626    |   210510        9  | 46:46.61 |  7:46.65 |    210511    |   245525       10  | 54:33.51 |  9:13.68 |    245526    |   287068       11  | 63:47.44 |  0:46.37 |    287069    |   290555       12  | 64:34.06 |  6:20.11 |    290556    |   319066Track  1     Filename C:\FiNiSHED EAC\Rips\01 - DJ Buck - Legend Of The High Plains Drifter.wav     Pre-gap length  0:00:02.00     Peak level 99.8 %     Track quality 100.0 %     Test CRC DC25D4B7     Copy CRC DC25D4B7     Accurately ripped (confidence 4)  [6EE6F258]     Copy OKTrack  2     Filename C:\FiNiSHED EAC\Rips\02 - Jay Tripwire - Acid Soul.wav     Peak level 99.8 %     Track quality 100.0 %     Test CRC 26EF579C     Copy CRC 26EF579C     Accurately ripped (confidence 4)  [8ACA9C04]     Copy OKTrack  3     Filename C:\FiNiSHED EAC\Rips\03 - Tribalation - Look Behind Your Eyes.wav     Pre-gap length  0:00:00.01     Peak level 99.8 %     Track quality 100.0 %     Test CRC 3BF78529     Copy CRC 3BF78529     Accurately ripped (confidence 4)  [8D814D8A]     Copy OKTrack  4     Filename C:\FiNiSHED EAC\Rips\04 - DJ Buck - Release The Tension.wav     Pre-gap length  0:00:00.01     Peak level 99.8 %     Track quality 100.0 %     Test CRC 6034AA3B     Copy CRC 6034AA3B     Accurately ripped (confidence 4)  [9D870914]     Copy OKTrack  5     Filename C:\FiNiSHED EAC\Rips\05 - Chus & Ceballos vs. Dano - Deep Architecture.wav     Peak level 99.8 %     Track quality 99.9 %     Test CRC 880E395A     Copy CRC 880E395A     Accurately ripped (confidence 4)  [6B0E43B0]     Copy OKTrack  6     Filename C:\FiNiSHED EAC\Rips\06 - Chloe - Another Kind Of Dream.wav     Pre-gap length  0:00:00.01     Peak level 99.8 %     Track quality 100.0 %     Test CRC 9D6FA58A     Copy CRC 9D6FA58A     Accurately ripped (confidence 4)  [6FB941CA]     Copy OKTrack  7     Filename C:\FiNiSHED EAC\Rips\07 - Jay Tripwire - All The Swine.wav     Peak level 99.8 %     Track quality 100.0 %     Test CRC 8EB57DF2     Copy CRC 8EB57DF2     Accurately ripped (confidence 4)  [7D85737D]     Copy OKTrack  8     Filename C:\FiNiSHED EAC\Rips\08 - Jay Tripwire - Allnight.wav     Pre-gap length  0:00:00.01     Peak level 99.8 %     Track quality 100.0 %     Test CRC 021825F1     Copy CRC 021825F1     Accurately ripped (confidence 4)  [D96F4CBF]     Copy OKTrack  9     Filename C:\FiNiSHED EAC\Rips\09 - Cutlab - Loud Kissin' (Asad Rizvi's Silverlining Smooch Mix).wav     Peak level 99.8 %     Track quality 99.9 %     Test CRC A542CA46     Copy CRC A542CA46     Accurately ripped (confidence 4)  [994FCE21]     Copy OKTrack 10     Filename C:\FiNiSHED EAC\Rips\10 - Grant Dell And Bob De Rosa - Letting Go.wav     Peak level 99.8 %     Track quality 100.0 %     Test CRC 5AE3EF32     Copy CRC 5AE3EF32     Accurately ripped (confidence 4)  [C28E4EDF]     Copy OKTrack 11     Filename C:\FiNiSHED EAC\Rips\11 - Laid - Punch Up.wav     Peak level 99.8 %     Track quality 99.7 %     Test CRC 4DCA1287     Copy CRC 4DCA1287     Accurately ripped (confidence 3)  [FA33040D]     Copy OKTrack 12     Filename C:\FiNiSHED EAC\Rips\12 - Rhythm & Sound with Cornell Campbell - King In My Empire.wav     Peak level 99.8 %     Track quality 100.0 %     Test CRC 2423DB1A     Copy CRC 2423DB1A     Accurately ripped (confidence 3)  [E94EF9E9]     Copy OKAll tracks accurately rippedNo errors occurredEnd of status report

Содержание индексной карты (.CUE)

REM GENRE HouseREM DATE 2002REM DISCID C4109E0CREM COMMENT ExactAudioCopy v0.99pb5PERFORMER "Various Artists"TITLE "Fabric 06 Tyler Stadius"FILE "01 - DJ Buck - Legend Of The High Plains Drifter.wav" WAVE  TRACK 01 AUDIO    TITLE "Legend Of The High Plains Drifter"    PERFORMER "DJ Buck"    INDEX 01 00:00:00FILE "02 - Jay Tripwire - Acid Soul.wav" WAVE  TRACK 02 AUDIO    TITLE "Acid Soul"    PERFORMER "Jay Tripwire"    INDEX 01 00:00:00FILE "03 - Tribalation - Look Behind Your Eyes.wav" WAVE  TRACK 03 AUDIO    TITLE "Look Behind Your Eyes"    PERFORMER "Tribalation"    INDEX 01 00:00:00FILE "04 - DJ Buck - Release The Tension.wav" WAVE  TRACK 04 AUDIO    TITLE "Release The Tension"    PERFORMER "DJ Buck"    INDEX 01 00:00:00FILE "05 - Chus & Ceballos vs. Dano - Deep Architecture.wav" WAVE  TRACK 05 AUDIO    TITLE "Deep Architecture"    PERFORMER "Chus & Ceballos vs. Dano"    INDEX 01 00:00:00FILE "06 - Chloe - Another Kind Of Dream.wav" WAVE  TRACK 06 AUDIO    TITLE "Another Kind Of Dream"    PERFORMER "Chloe"    INDEX 01 00:00:00FILE "07 - Jay Tripwire - All The Swine.wav" WAVE  TRACK 07 AUDIO    TITLE "All The Swine"    PERFORMER "Jay Tripwire"    INDEX 01 00:00:00FILE "08 - Jay Tripwire - Allnight.wav" WAVE  TRACK 08 AUDIO    TITLE "Allnight"    PERFORMER "Jay Tripwire"    INDEX 01 00:00:00FILE "09 - Cutlab - Loud Kissin' (Asad Rizvi's Silverlining Smooch Mix).wav" WAVE  TRACK 09 AUDIO    TITLE "Loud Kissin' (Asad Rizvi's Silverlining Smooch Mix)"    PERFORMER "Cutlab"    INDEX 01 00:00:00FILE "10 - Grant Dell And Bob De Rosa - Letting Go.wav" WAVE  TRACK 10 AUDIO    TITLE "Letting Go"    PERFORMER "Grant Dell And Bob De Rosa"    INDEX 01 00:00:00FILE "11 - Laid - Punch Up.wav" WAVE  TRACK 11 AUDIO    TITLE "Punch Up"    PERFORMER "Laid"    INDEX 01 00:00:00FILE "12 - Rhythm & Sound with Cornell Campbell - King In My Empire.wav" WAVE  TRACK 12 AUDIO    TITLE "King In My Empire"    PERFORMER "Rhythm & Sound with Cornell Campbell"    INDEX 01 00:00:00

2002 - Hipp-E & Halo – Fabric 07

Label/Cat#: Fabric (London) – FABRIC 13
Country: UK
Year: 04 Nov 2002
Genre: Electronic
Style: House, Tech House
Format: CD, Mixed
Аудиокодек: FLAC (*.flac)
Тип рипа: Tracks+.cue
Продолжительность: 73:58
Источник (релизер): alsaan (what.cd)
Наличие сканов в содержимом раздачи: нетTracklist
1. Inverse Cinematics – Slow Swing
2. Nile – 3 In Tha Mornin' (Swag's Version Dub)
3. Swag – Metroride (Ken & Sam's Racketride)
4. Scoper & Bubba – I'm Satisfied
5. Natural Rhythm – Freakinought
6. Hanna – Time (Doza's Lawnchair Generals Mix)
7. Seafoam – Chatter
8. Guided Methods – Rugburns (Original Mix)
9. Simon et Bolivard – And I Know
10. Solaris Heights – Midnight (Original Mix)
11. Don't Bogart – Long Deep Decay
12. UBQ Project – When I Fell In Love (Charles Webster Dub Mix)
13. Halo – Lakeshore Dr.
14. Ernest Saint Laurent – Body Flowers (Fluid System Mix)More information:

Лог создания рипа

[pre]Exact Audio Copy V0.99 prebeta 4 from 23. January 2008EAC extraction logfile from 29. December 2008, 18:18Various Artists / Fabric 07: Hipp-e & HaloUsed drive : ATAPI DVD DW 8X16X8X16 Adapter: 3 ID: 0Read mode : SecureUtilize accurate stream : YesDefeat audio cache : YesMake use of C2 pointers : NoRead offset correction : 618Overread into Lead-In and Lead-Out : NoFill up missing offset samples with silence : YesDelete leading and trailing silent blocks : NoNull samples used in CRC calculations : YesUsed interface : Installed external ASPI interfaceGap handling : Appended to previous trackUsed output format : User Defined EncoderSelected bitrate : 896 kBit/sQuality : HighAdd ID3 tag : NoCommand line compressor : C:\Program Files\[FLAC-EAC]\flac.exeAdditional command line options : -8 -A tukey(0.25) -A gauss(0.1875) -b 4096 -V -T "artist=%a" -T "title=%t" -T "album=%g" -T "date=%y" -T "tracknumber=%n" -T "genre=%m" %s --sector-alignTOC of the extracted CD Track | Start | Length | Start sector | End sector --------------------------------------------------------- 1 | 0:00.00 | 8:41.50 | 0 | 39124 2 | 8:41.50 | 6:09.32 | 39125 | 66831 3 | 14:51.07 | 3:56.13 | 66832 | 84544 4 | 18:47.20 | 4:18.67 | 84545 | 103961 5 | 23:06.12 | 3:33.13 | 103962 | 119949 6 | 26:39.25 | 5:50.07 | 119950 | 146206 7 | 32:29.32 | 6:05.55 | 146207 | 173636 8 | 38:35.12 | 2:47.23 | 173637 | 186184 9 | 41:22.35 | 4:10.45 | 186185 | 204979 10 | 45:33.05 | 5:34.30 | 204980 | 230059 11 | 51:07.35 | 6:34.67 | 230060 | 259676 12 | 57:42.27 | 4:03.00 | 259677 | 277901 13 | 61:45.27 | 7:37.03 | 277902 | 312179 14 | 69:22.30 | 4:36.05 | 312180 | 332884Track 1 Filename C:\MUSiC RiPZ FOLDER\EAC\Rips\Various Artists - 2002 - Fabric 07- Hipp-e & Halo\01 - Inverse Cinematics - Slow Swing.wav Pre-gap length 0:00:02.00 Peak level 100.0 % Track quality 99.9 % Test CRC 55E30ED5 Copy CRC 55E30ED5 Accurately ripped (confidence 3) [D278DE13] Copy OKTrack 2 Filename C:\MUSiC RiPZ FOLDER\EAC\Rips\Various Artists - 2002 - Fabric 07- Hipp-e & Halo\02 - Nile - 3 In Tha Mornin' (Swag's Version Dub).wav Peak level 100.0 % Track quality 100.0 % Test CRC 7ABCA

Для скачки контента: [Установить программу-клиент] и кликнуть по - СкачатьБезопасность: клиент проверен АВ Касперского

[asmlocator.ru].t592296.torrent 
Торрент: Зарегистрирован [ 2018-12-01 11:50 ] · A3D14F3C0F384406121A638FEC56EFEE5968FB41

Скачать .torrent

Скачать

479 KB

Статус: проверено
Скачан: 0 раз
Размер: 47,08 GB
terms.php
[Профиль] [ЛС]
Показать сообщения:    
Ответить на тему

Текущее время: 10-Дек 09:48

Часовой пояс: UTC ± 0



Вы не можете начинать темы
Вы не можете отвечать на сообщения
Вы не можете редактировать свои сообщения
Вы не можете удалять свои сообщения
Вы не можете голосовать в опросах
Вы не можете прикреплять файлы к сообщениям
Вы можете скачивать файлы