Вселенная Стивена / Steven Universe / Сезон: 1 / Серии: 27-52 из 52 (Ребекка Шугар / Rebecca Sugar) [2014, комедия, приключения, драма, WEB-DL 1080p] Dub + Original

Ответить на тему
Статистика раздачи
Размер:  11,41 GB   |    Зарегистрирован:  9 месяцев 26 дней   |    Скачан:  0 раз

Полного источника не было: Никогда

 
   
 
 
Автор Сообщение

star21 ®

Пол: Женский

Стаж: 3 года 10 месяцев

Сообщений: 551989

Откуда: Екатеринбург

Создавать темы 21-Ноя-2018 19:25

[Цитировать]

Вселенная Стивена / Steven Universe / Сезон 1B Страна: США
Жанр: Комедия, приключения, драма
Сезон: 1B
Серии: 27-52 (из 52)
Продолжительность: ~00:22:30 (~00:11:30, одной серии)
Год выпуска: 2014
Перевод: Профессиональный (дублированный) (студия Пифагор)
Русские субтитры: нетРежиссёр: Ребекка Шугар / Rebecca Sugar
Роли озвучивали: Зак Келлисон, Эстель, Михаела Диц, Диди МагноОписание: Мультфильм повествует о Стивене - пухлом пареньке, совсем недавно попавшим в число группы интергалактических воителей, каждый из которых символизирует свой камень. Гранат, Аметист и Жемчуг заключены в их телах и дают своим хозяевам магические силы. Воители, как мы и привыкли, будут бороться с космическим злом повсеместно. Предыдущие и альтернативные раздачи | В дубляже
Рейтинг: [imdb]http://www.imdb.com/title/tt3061046[/imdb] Качество: WEB-DL 1080p
Формат: MKV
Видео: AVC, 1920x1080, 23.976 fps, ~5000 kbps
Аудио 1 Rus: AC3, 48 kHz, 2 ch, 192 kbps
Аудио 2 Eng: AAC LC, 48 kHz, 2 ch, ~154 kbps

Скриншоты

Список серий

27. В гостях хорошо / House Guest
28. Космическая гонка / Space Race
29. Тайная группа / Secret Team
30. Приключения на острове / Island Adventure
31. Храним странности Прибрежья / Keep Beach City Weird
32. Совместный ужин / Fusion Cuisine
33. Вселенная Гранат / Garnet's Universe
34. Арбузный Стивен / Watermelon Steven
35. Лев 3. Теперь на видео / Lion 3. Straight to Video
36. Тайна гиперпространства / Warp Tour
37. Совместное одиночество / Alone Together
38. Испытание / The Test
39. Предвидение / Future Vision
40. В бегах / On the Run
41. Клуб любителей ужасов / Horror Club
42. Зимний прогноз / Winter Forecast
43. Предел вместимости / Maximum Capacity
44. Нашествие с небес / Marble Madness
45. Ножны Розы / Rose's Scabbard
46. Открытая книга / Open Book
47. Футболковый клуб / Shirt Club
48. История на ночь / Story for Steven
49. Послание / The Message
50. Сила Политики / Political Power
51. Возвращение / The Return
52. Побег из заточения / Jail Break

Дополнительная информация

Это долгожданная вторая половина первого сезона (1B) мультсериала "Вселенная Стивена" в профессиональном дубляже студии Пифагор, а раздачу начала сезона (1A) в подобном качестве можно найти тут. На немногочисленные вырезанные в телепоказе цензурой короткие моменты добавлена одноголосая озвучка Macaron. Нумерация серий в этой раздаче точно соответствует списку серий в Википедии.

Подробные технические данные

ОбщееУникальный идентификатор                 : 118424929543096506547061862708817629033 (0x5917CFD1EBEFB64BB4DDF615BAD70F69)Полное имя                               : .\Steven Universe 1B\su.s01e27e28.House Guest.Space Race.mkvФормат                                   : MatroskaВерсия формата                           : Version 4 / Version 2Размер файла                             : 860 МбайтПродолжительность                        : 22 м. 34 с.Общий поток                              : 5327 Кбит/секДата кодирования                         : UTC 2018-11-20 18:39:43Программа кодирования                    : mkvmerge v28.2.0 ('The Awakening') 64-bitБиблиотека кодирования                   : libebml v1.3.6 + libmatroska v1.4.9ВидеоИдентификатор                            : 1Формат                                   : AVCФормат/Информация                        : Advanced Video CodecПрофиль формата                          : High@L4Настройки формата                        : CABAC / 4 Ref FramesПараметр CABAC формата                   : ДаПараметр RefFrames формата               : 4 кадраИдентификатор кодека                     : V_MPEG4/ISO/AVCПродолжительность                        : 22 м. 34 с.Битрейт                                  : 4979 Кбит/секШирина                                   : 1920 пикселейВысота                                   : 1080 пикселейСоотношение сторон                       : 16:9Режим частоты кадров                     : ПостоянныйЧастота кадров                           : 23,976 (23976/1000) кадра/секЦветовое пространство                    : YUVСубдискретизация насыщенности            : 4:2:0Битовая глубина                          : 8 битТип развёртки                            : ПрогрессивнаяБит/(Пиксели*Кадры)                      : 0.100Размер потока                            : 804 Мбайт (93%)Язык                                     : EnglishDefault                                  : ДаForced                                   : НетЦветовой диапазон                        : LimitedОсновные цвета                           : BT.709Характеристики трансфера                 : BT.709Коэффициенты матрицы                     : BT.709Аудио #1Идентификатор                            : 2Формат                                   : AC-3Формат/Информация                        : Audio Coding 3Параметр Endianness формата              : BigИдентификатор кодека                     : A_AC3Продолжительность                        : 22 м. 34 с.Вид битрейта                             : ПостоянныйБитрейт                                  : 192 Кбит/секКаналы                                   : 2 каналаРасположение каналов                     : Front: L RЧастота                                  : 48,0 КГцЧастота кадров                           : 31,250 кадров/сек (1536 SPF)Битовая глубина                          : 16 битМетод сжатия                             : С потерямиРазмер потока                            : 31,0 Мбайт (4%)Язык                                     : RussianServiceKind/String                       : Complete MainDefault                                  : ДаForced                                   : НетАудио #2Идентификатор                            : 3Формат                                   : AACФормат/Информация                        : Advanced Audio CodecПрофиль формата                          : LCИдентификатор кодека                     : A_AAC-2Продолжительность                        : 22 м. 34 с.Битрейт                                  : 154 Кбит/секКаналы                                   : 2 каналаРасположение каналов                     : Front: L RЧастота                                  : 48,0 КГцЧастота кадров                           : 46,875 кадров/сек (1024 SPF)Метод сжатия                             : С потерямиРазмер потока                            : 24,8 Мбайт (3%)Язык                                     : EnglishDefault                                  : НетForced                                   : Нет

Чтобы скачать этот контент, Вам необходимо:
1. Скачать и установить торрент-клиент [клик для Windows], (для мобильного найдите на Play Маркет).
2. Кликнуть по [Скачать]


Внимание.
Если проверка ВЫ НЕ РОБОТ - не работает, значит Вы используете устаревший браузер.
Установите актуальный браузер и повторно кликните по [Скачать]
Безопасность: торрент-клиент разрешён АВ Касперского.

[asmlocator.ru].t589199.torrent 
Торрент: Зарегистрирован [ 2018-11-21 19:25 ] · 9D2F5EC9AF2421E20E7194E8DBFFD6A1C4ADCDA2

Скачать .torrent

Скачать

30 KB

Статус: проверено
Скачан: 0 раз
Размер: 11,41 GB
terms.php
[Профиль] [ЛС]
Показать сообщения:    
Ответить на тему

Текущее время: 18-Сен 02:03

Часовой пояс: UTC ± 0



Вы не можете начинать темы
Вы не можете отвечать на сообщения
Вы не можете редактировать свои сообщения
Вы не можете удалять свои сообщения
Вы не можете голосовать в опросах
Вы не можете прикреплять файлы к сообщениям
Вы можете скачивать файлы
Верим фактам, а не вранью Путина! Факт, что Правительство ведёт Россию к истреблению.
Так как численность населения падает, даже не смотря на приток эмигрантов!
Русская нация вымирает и вырождается, смешиваясь с эмигрантами!
Факт, что военных и граждан предприятий заставляют голосовать за партию Единая Россия и Путина
ПОД СТРАХОМ УВОЛЬНЕНИЯ!
Нам не нужно Правительство, блокирующее личную жизнь, интернет, нарушающее сохранность данных.
Все эти действия финансируются за счёт народа!