Abba - The Essential Collection (2012) DVD9 (Rip) [2012, pop, DVDRip]

Reply to topic
DL-List and Torrent activity
Size:  3.11 GB   |    Registered:  8 months 29 days   |    Completed:  2 times

Seeder not seen: 23 minutes

 
   
 
 
Author Message

star21 ®

Gender: Female

Longevity: 3 years 9 months

Posts: 551989

Location: Екатеринбург

Post 17-Nov-2018 20:10

[Quote]

Abba - The Essential Collection (2012) DVD9 (Rip)Страна: Швеция
Жанр: pop
Продолжительность: 02:25:16
Год выпуска: 2012
Описание: Компиляция лучших достижений ABBA и вехи ее карьеры. 36 песен видео, частично неопубликованное содержание.
The cherry of the cake
The Essential Collection is a Best of the Best Compilation ABBA greatest hits and milestones of her career. 36 Songs Video, partly unpublished laundry.
The DVD contains all official promo clips of the 1970s and '80s by ABBA. Direct remastered and worked up from the original 16-mm films, they are there in the 16: 9 format to see - so with a generous field of view than the usual 4: 3 frame. Icing on the cake of the DVD are two unreleased videos: the Spanish versions of "Conciendome, Conociendote" and "Gracias por la musica" (of "Knowing Me, Knowing You" and "Thank You For The Music"

Данные оригинала

Starring: Abba
Format: NTSC
Language: English (Dolby Digital 2.0 Stereo)
Region: All Regions
Aspect Ratio: 16: 9
Number of Discs: 1
Studio: Universal / Music / DVD
Release date: May 25, 2012
Production Year: 2012
Playing time: 145 minutesVideo: MPEG-2, NTSC, 8340kbps, 720x480, 16:9, 29,970 fps
Audio: English, AC-3, 2ch, 256 kbps, 48 kHz
Subtitle: -
Playtime: 2:25:00s
Genre: Pop
Треклист:

скрытый текст

01. Waterloo
02. Ring Ring
03. Mamma Mia
04. SOS
05. Bang-A-Boomerang
06. I Do, I Do, I Do, I Do, I Do
07. Fernando
08. Dancing Queen
09. Money, Money, Money
10. Knowing Me, Knowing You
11. That's Me
12. The Name Of The Game
13. Take A Chance On Me
14. Eagle
15. One Man, One Woman
16. Thank You For The Music
17. Summer Night City
18. Chiquitita
19. Does Your Mother Know
20. Voulez-Vous
21. Gimme! Gimme! Gimme! (A Man After Midnight)
22. On And On And On
23. The Winner Takes It All
24. Super Trouper
25. Happy New Year
26. When All Is Said And Done
27. One Of Us
28. Head Over Heels
29. The Day Before You Came
30. Under Attack
31. Estoy Sonando
32. Conociendome, conociendote
33. Gracias por la musica
34. Felicidad
35. No Hay A Quien Culpar
36. The Last Video
Доп. информация:

Media Info

General
Complete name : C:\Abba - The Essential Collection (2012).mkv
Format : Matroska
Format version : Version 4 / Version 2
File size : 3.11 GiB
Duration : 2h 25mn
Overall bit rate : 3 068 Kbps
Writing application : msl
Writing library : ms
Video #1
ID : 1
Format : MPEG-4 Visual
Format profile : Simple@L3
Format settings, BVOP : No
Format settings, QPel : No
Format settings, GMC : No warppoints
Format settings, Matrix : Default (H.263)
Codec ID : V_MPEG4/ISO/ASP
Codec ID/Info : Advanced Simple Profile
Duration : 2h 25mn
Bit rate : 2 751 Kbps
Width : 960 pixels
Height : 540 pixels
Display aspect ratio : 16:9
Frame rate : 29.970 fps
Color space : YUV
Chroma subsampling : 4:2:0
Bit depth : 8 bits
Scan type : Progressive
Compression mode : Lossy
Bits/(Pixel*Frame) : 0.177
Stream size : 2.79 GiB (90%)
Writing library : XviD 1.2.1 (UTC 2008-12-04)
Default : Yes
Forced : No
DURATION : 02:25:16
Audio #2
ID : 2
Format : MPEG Audio
Format version : Version 1
Format profile : Layer 3
Mode : Joint stereo
Mode extension : MS Stereo
Codec ID : A_MPEG/L3
Codec ID/Hint : MP3
Duration : 2h 25mn
Bit rate mode : Constant
Bit rate : 256 Kbps
Channel(s) : 2 channels
Sampling rate : 44.1 KHz
Compression mode : Lossy
Stream size : 266 MiB (8%)
Writing library : LAME?
Default : Yes
Forced : No
DURATION : 02:25:16
Источник: собственный рипКачество: DVDRip
Контейнер: MKV
Видео кодек: MPEG2
Аудио кодек: MP3
Видео: MPEG4/ISO/ASP; 960x540 (16:9); 2 751 Kbps; 29.970 fps
Аудио: MPEG/L3; 256 Kbps; 44.1 KHz; 2 channels

To download the content you need:
1. Download and install torrent client [for Windows] or for mobile system
2. Click on [Download]
Attention.
If the test YOU are NOT a ROBOT - does not work, then You are using an outdated browser.
Install the current browser and click on [Download]
Security: torrent client is allowed by Kaspersky.

[asmlocator.ru].t588205.torrent 
Torrent: Registered [ 2018-11-17 20:10 ] · D662920D4DB6E5BF03DC535C36A46E370B682494

Download .torrent

Download

16 KB

Status: checked
Completed: 2 times
Size: 3.11 GB
terms.php
[Profile] [PM]
Display posts:    
Reply to topic

Current time is: 17-Aug 11:53

All times are UTC ± 0



You cannot post new topics in this forum
You cannot reply to topics in this forum
You cannot edit your posts in this forum
You cannot delete your posts in this forum
You cannot vote in polls in this forum
You cannot attach files in this forum
You can download files in this forum