(Hip-House, Miami Bass) [CDM] The 2 Live Crew / Blow That Bass And Pump That Whistle ‎– We Want Some Pussy (Rap-House Remix) / Miami Bass (Original Mixes) - 1989, FLAC (tracks+.cue), lossless

Ответить на тему
Статистика раздачи
Размер:  116 MB   |    Зарегистрирован:  7 дней   |    Скачан:  0 раз

Полного источника не было: Никогда

 
   
 
 
Автор Сообщение

star21 ®

Пол: Женский

Стаж: 3 года

Сообщений: 552917

Откуда: Екатеринбург

Создавать темы 09-Ноя-2018 15:20

[Цитировать]

The 2 Live Crew / Blow That Bass And Pump That Whistle
We Want Some Pussy (Rap-House Remix) / Miami Bass (Original Mixes)
Жанр: Hip-House, Miami Bass
Носитель: CDM
Год издания: 1989
Издатель (лейбл): Low Spirit Recordings
Номер по каталогу: EFA 04274-02
Аудиокодек: FLAC (*.flac)
Тип рипа: tracks+.cue
Битрейт аудио: lossless
Продолжительность: 14:15
Источник (релизер): свой рип
Наличие сканов в содержимом раздачи: да
Треклист:01. The 2 Live Crew - We Want Some Pussy (Dicks Delight Mix) (6:36)
02. Blow That Ba$$ And Pump That Whistle - Miami Bass (Part 1) (4:10)
03. Blow That Ba$$ And Pump That Whistle - Miami Bass (Part 2) (3:29)

Лог создания рипа

Exact Audio Copy V1.3 from 2. September 2016EAC extraction logfile from 4. November 2018, 20:05The 2 Live Crew / Blow That Bass And Pump That Whistle / We Want Some Pussy (Rap-House Remix) / Miami Bass (Original Mixes)Used drive  : ASUS    DRW-24B5ST   Adapter: 6  ID: 0Read mode               : SecureUtilize accurate stream : YesDefeat audio cache      : YesMake use of C2 pointers : NoRead offset correction                      : 6Overread into Lead-In and Lead-Out          : NoFill up missing offset samples with silence : YesDelete leading and trailing silent blocks   : NoNull samples used in CRC calculations       : YesUsed interface                              : Installed external ASPI interfaceGap handling                                : Appended to previous trackUsed output format              : User Defined EncoderSelected bitrate                : 128 kBit/sQuality                         : HighAdd ID3 tag                     : NoCommand line compressor         : D:\flac-1.3.2-win\win64\flac.exeAdditional command line options : -8 -V -T "ARTIST=%artist%" -T "TITLE=%title%" -T "ALBUM=%albumtitle%" -T "DATE=%year%" -T "TRACKNUMBER=%tracknr%" -T "GENRE=%genre%" -T "COMMENT=ripped by Andy aka yetiisyou" %source%TOC of the extracted CD     Track |   Start  |  Length  | Start sector | End sector    ---------------------------------------------------------        1  |  0:00.00 |  6:36.27 |         0    |    29726        2  |  6:36.27 |  4:09.58 |     29727    |    48459        3  | 10:46.10 |  3:28.67 |     48460    |    64126Track  1     Filename E:\!Ripped by Andy aka yetiisyou\The 2 Live Crew + Blow That Bass And Pump That Whistle - We Want Some Pussy + Miami Bass [EFA 04274-02] [1989]\01. The 2 Live Crew - We Want Some Pussy (Dicks Delight Mix).wav     Pre-gap length  0:00:02.00     Peak level 97.2 %     Extraction speed 2.0 X     Track quality 100.0 %     Test CRC 71260C73     Copy CRC 71260C73     Accurately ripped (confidence 2)  [4CC5DF14]  (AR v2)     Copy OKTrack  2     Filename E:\!Ripped by Andy aka yetiisyou\The 2 Live Crew + Blow That Bass And Pump That Whistle - We Want Some Pussy + Miami Bass [EFA 04274-02] [1989]\02. Blow That Ba$$ And Pump That Whistle - Miami Bass (Part 1).wav     Pre-gap length  0:00:01.00     Peak level 87.0 %     Extraction speed 2.2 X     Track quality 100.0 %     Test CRC FE46CADF     Copy CRC FE46CADF     Accurately ripped (confidence 2)  [0B8353CA]  (AR v2)     Copy OKTrack  3     Filename E:\!Ripped by Andy aka yetiisyou\The 2 Live Crew + Blow That Bass And Pump That Whistle - We Want Some Pussy + Miami Bass [EFA 04274-02] [1989]\03. Blow That Ba$$ And Pump That Whistle - Miami Bass (Part 2).wav     Peak level 85.8 %     Extraction speed 2.3 X     Track quality 100.0 %     Test CRC 74D5D998     Copy CRC 74D5D998     Accurately ripped (confidence 2)  [9688F0C3]  (AR v2)     Copy OKAll tracks accurately rippedNo errors occurredEnd of status report---- CUETools DB Plugin V2.1.6[CTDB TOCID: HUBwkP22a9eGanJMYYzd2d4EZO8-] foundSubmit result: HUBwkP22a9eGanJMYYzd2d4EZO8- has been confirmedTrack | CTDB Status  1   | (6/6) Accurately ripped  2   | (6/6) Accurately ripped  3   | (6/6) Accurately ripped==== Log checksum 2C9DA3237769939FE68FCDFDDC2FD6C4964B24E422852C5BBECA54CE00BF9F4E ====

Содержание индексной карты (.CUE)

REM DATE 1987REM DISCID 28035703REM COMMENT "ExactAudioCopy v1.3"CATALOG 0000000000000PERFORMER "The 2 Live Crew / Blow That Bass And Pump That Whistle"TITLE "We Want Some Pussy (Rap-House Remix) / Miami Bass (Original Mixes)"REM COMPOSER ""FILE "01. The 2 Live Crew - We Want Some Pussy (Dicks Delight Mix).wav" WAVE  TRACK 01 AUDIO    TITLE "We Want Some Pussy (Dicks Delight Mix)"    PERFORMER "The 2 Live Crew"    REM COMPOSER ""    INDEX 01 00:00:00  TRACK 02 AUDIO    TITLE "Miami Bass (Part 1)"    PERFORMER "Blow That Ba$$ And Pump That Whistle"    REM COMPOSER ""    INDEX 00 06:35:27FILE "02. Blow That Ba$$ And Pump That Whistle - Miami Bass (Part 1).wav" WAVE    INDEX 01 00:00:00FILE "03. Blow That Ba$$ And Pump That Whistle - Miami Bass (Part 2).wav" WAVE  TRACK 03 AUDIO    TITLE "Miami Bass (Part 2)"    PERFORMER "Blow That Ba$$ And Pump That Whistle"    REM COMPOSER ""    INDEX 01 00:00:00

Для скачки контента: [Установить программу-клиент] и кликнуть по - СкачатьБезопасность: клиент проверен АВ Касперского

[asmlocator.ru].t585407.torrent 
Торрент: Зарегистрирован [ 2018-11-09 15:20 ] · 995FEACD0F55868E95ECB31743178488517B9178

Скачать .torrent

Скачать

19 KB

Статус: проверено
Скачан: 0 раз
Размер: 116 MB
terms.php
[Профиль] [ЛС]
Показать сообщения:    
Ответить на тему

Текущее время: 16-Ноя 19:03

Часовой пояс: UTC ± 0



Вы не можете начинать темы
Вы не можете отвечать на сообщения
Вы не можете редактировать свои сообщения
Вы не можете удалять свои сообщения
Вы не можете голосовать в опросах
Вы не можете прикреплять файлы к сообщениям
Вы можете скачивать файлы