(Trance) [CDM] Split - Perfect Bass - 1998, FLAC (tracks+.cue), lossless

Ответить на тему
Статистика раздачи
Размер:  186 MB   |    Зарегистрирован:  7 дней   |    Скачан:  0 раз

Полного источника не было: Никогда

 
   
 
 
Автор Сообщение

star21 ®

Пол: Женский

Стаж: 3 года

Сообщений: 552917

Откуда: Екатеринбург

Создавать темы 09-Ноя-2018 15:20

[Цитировать]

Split / Perfect BassЖанр: Trance
Носитель: CDM
Год издания: 1998
Издатель (лейбл): EastWest
Номер по каталогу: 3984-21757-2
Аудиокодек: FLAC (*.flac)
Тип рипа: tracks+.cue
Битрейт аудио: lossless
Продолжительность: 24:17
Источник (релизер): свой рип
Наличие сканов в содержимом раздачи: да
Треклист:01. Split - Perfect Bass (7' Edit) (3:43)
02. Split - Perfect Bass (Xtd Version) (7:37)
03. Split - Perfect Bass (Speed Split Rmx) (6:31)
04. Split - Perfect Bass (Speed Dub) (6:26)

Лог создания рипа

Exact Audio Copy V1.3 from 2. September 2016EAC extraction logfile from 17. June 2018, 13:00Split / Perfect BassUsed drive  : ASUS    DRW-24B5ST   Adapter: 6  ID: 0Read mode               : SecureUtilize accurate stream : YesDefeat audio cache      : YesMake use of C2 pointers : NoRead offset correction                      : 6Overread into Lead-In and Lead-Out          : NoFill up missing offset samples with silence : YesDelete leading and trailing silent blocks   : NoNull samples used in CRC calculations       : YesUsed interface                              : Installed external ASPI interfaceGap handling                                : Appended to previous trackUsed output format              : User Defined EncoderSelected bitrate                : 128 kBit/sQuality                         : HighAdd ID3 tag                     : NoCommand line compressor         : D:\flac-1.3.2-win\win64\flac.exeAdditional command line options : -8 -V -T "ARTIST=%artist%" -T "TITLE=%title%" -T "ALBUM=%albumtitle%" -T "DATE=%year%" -T "TRACKNUMBER=%tracknr%" -T "GENRE=%genre%" -T "COMMENT=ripped by Andy aka yetiisyou" %source%TOC of the extracted CD     Track |   Start  |  Length  | Start sector | End sector    ---------------------------------------------------------        1  |  0:00.00 |  3:42.45 |         0    |    16694        2  |  3:42.45 |  7:37.00 |     16695    |    50969        3  | 11:19.45 |  6:30.52 |     50970    |    80271        4  | 17:50.22 |  6:26.28 |     80272    |   109249Track  1     Filename E:\Ripped by Andy aka yetiisyou\Split - Perfect Bass [3984-21757-2] [1998]\01. Split - Perfect Bass (7'' Edit).wav     Pre-gap length  0:00:02.00     Peak level 98.8 %     Extraction speed 3.3 X     Track quality 100.0 %     Test CRC A3799ED9     Copy CRC A3799ED9     Accurately ripped (confidence 2)  [7B463326]  (AR v2)     Copy OKTrack  2     Filename E:\Ripped by Andy aka yetiisyou\Split - Perfect Bass [3984-21757-2] [1998]\02. Split - Perfect Bass (Xtd Version).wav     Pre-gap length  0:00:02.48     Peak level 98.8 %     Extraction speed 4.2 X     Track quality 100.0 %     Test CRC E58B199C     Copy CRC E58B199C     Accurately ripped (confidence 2)  [794D3E50]  (AR v2)     Copy OKTrack  3     Filename E:\Ripped by Andy aka yetiisyou\Split - Perfect Bass [3984-21757-2] [1998]\03. Split - Perfect Bass (Speed Split Rmx).wav     Pre-gap length  0:00:02.48     Peak level 98.8 %     Extraction speed 4.7 X     Track quality 100.0 %     Test CRC A0B62B81     Copy CRC A0B62B81     Accurately ripped (confidence 2)  [7087BAFD]  (AR v2)     Copy OKTrack  4     Filename E:\Ripped by Andy aka yetiisyou\Split - Perfect Bass [3984-21757-2] [1998]\04. Split - Perfect Bass (Speed Dub).wav     Pre-gap length  0:00:02.47     Peak level 98.8 %     Extraction speed 5.2 X     Track quality 100.0 %     Test CRC 8184A5F6     Copy CRC 8184A5F6     Accurately ripped (confidence 2)  [6292D23E]  (AR v2)     Copy OKAll tracks accurately rippedNo errors occurredEnd of status report---- CUETools DB Plugin V2.1.6[CTDB TOCID: NChGLdZG55f0EopEkGYgPMhLbKg-] foundSubmit result: NChGLdZG55f0EopEkGYgPMhLbKg- has been confirmedTrack | CTDB Status  1   | (1/1) Accurately ripped  2   | (1/1) Accurately ripped  3   | (1/1) Accurately ripped  4   | (1/1) Accurately ripped==== Log checksum 98CE83DCC716147586E8C2D6A9E50F878D52EDA68E90FBA53D0227B6720D0B6C ====

Содержание индексной карты (.CUE)

REM GENRE TechnoREM DISCID 2305B004REM COMMENT "ExactAudioCopy v1.3"CATALOG 3984217570200PERFORMER "Split"TITLE "Perfect Bass"REM COMPOSER ""FILE "01. Split - Perfect Bass (7'' Edit).wav" WAVE  TRACK 01 AUDIO    TITLE "Perfect Bass (7' Edit)"    PERFORMER "Split"    REM COMPOSER ""    ISRC DEA619761000    INDEX 01 00:00:00  TRACK 02 AUDIO    TITLE "Perfect Bass (Xtd Version)"    PERFORMER "Split"    REM COMPOSER ""    ISRC DEA619761001    INDEX 00 03:39:72FILE "02. Split - Perfect Bass (Xtd Version).wav" WAVE    INDEX 01 00:00:00  TRACK 03 AUDIO    TITLE "Perfect Bass (Speed Split Rmx)"    PERFORMER "Split"    REM COMPOSER ""    ISRC DEA619761002    INDEX 00 07:34:27FILE "03. Split - Perfect Bass (Speed Split Rmx).wav" WAVE    INDEX 01 00:00:00  TRACK 04 AUDIO    TITLE "Perfect Bass (Speed Dub)"    PERFORMER "Split"    REM COMPOSER ""    ISRC DEA619761003    INDEX 00 06:28:05FILE "04. Split - Perfect Bass (Speed Dub).wav" WAVE    INDEX 01 00:00:00

Для скачки контента: [Установить программу-клиент] и кликнуть по - СкачатьБезопасность: клиент проверен АВ Касперского

[asmlocator.ru].t585399.torrent 
Торрент: Зарегистрирован [ 2018-11-09 15:20 ] · E0DD9D78455D8738C8B193D1FA558D7C57B6981A

Скачать .torrent

Скачать

16 KB

Статус: проверено
Скачан: 0 раз
Размер: 186 MB
terms.php
[Профиль] [ЛС]
Показать сообщения:    
Ответить на тему

Текущее время: 16-Ноя 19:05

Часовой пояс: UTC ± 0



Вы не можете начинать темы
Вы не можете отвечать на сообщения
Вы не можете редактировать свои сообщения
Вы не можете удалять свои сообщения
Вы не можете голосовать в опросах
Вы не можете прикреплять файлы к сообщениям
Вы можете скачивать файлы