[TR24][OF] DADAROMA - This is LIVE (ONEMAN TOUR FINAL 2018.03.21) - 2018 (JRock)

Ответить на тему
Статистика раздачи
Размер:  1,53 GB   |    Зарегистрирован:  7 дней   |    Скачан:  0 раз

Полного источника не было: Никогда

 
   
 
 
Автор Сообщение

star21 ®

Пол: Женский

Стаж: 3 года

Сообщений: 552917

Откуда: Екатеринбург

Создавать темы 09-Ноя-2018 15:20

[Цитировать]

DADAROMA / This is LIVE (ONEMAN TOUR FINAL 2018.03.21) Формат записи/Источник записи: [TR24][OF]
Наличие водяных знаков: Нет
Год издания/переиздания диска: 2018
Жанр: JRock
Издатель (лейбл): Timely Records
Продолжительность: 01:57:18
Наличие сканов в содержимом раздачи: Только обложка альбома

Треклист

:
01. Intro
02. ファントムペイン
03. MONEY
04. 私、バンギャじゃないわ
05. 「MASTURBATION.」
06. 「THE KINKY」
07. イノセント・ホリック
08. トレンドアイデンティティ
09. ロマンスグレー
10. モルヒネ♯2
11. 「わるいくすり」
12. 「溺れる魚」
13. 「雨のワルツ」
14. 月のうた
15. 融け込めないざらざらな芸術を君が殺してくれないか
16. 白いゼラニウム
17. ベルカとストレルカ
18. 「夢タラレバ」
19. 「リズリーサーカス」
20. クワイエットレッド
21. 「ポルノグラフ」
22. KIDS WAR
23. ある日、世界は美しいと思った。
24. 「リズリーサーカス」……よしあつVer.
25. モルヒネ♯2……太嘉志Ver.
26. イノセント・ホリック……朋Ver.
27. ベルカとストレルカ……裕介Ver.
28. Outro
Контейнер: FLAC (*.flac)
Тип рипа: tracksРазрядность: 24/48
Формат: PCM
Количество каналов: 2.0

Лог проверки качества

GeneralComplete name                            : D:\001 japan flac\2018 DADAROMA - This is LIVE (ONEMAN TOUR FINAL 2018.03.21) Hi Res flac\01 Intro.flacFormat                                   : FLACFormat/Info                              : Free Lossless Audio CodecFile size                                : 24.4 MiBDuration                                 : 2 min 4 sOverall bit rate mode                    : VariableOverall bit rate                         : 1 642 kb/sAlbum                                    : This is LIVE (ONEMAN TOUR FINAL 2018.03.21)Album/Performer                          : DADAROMA / DADAROMATrack name                               : IntroTrack name/Position                      : 1Performer                                : DADAROMAGenre                                    : JRockRecorded date                            : 2018Cover                                    : YesCover type                               : Cover (front)Cover MIME                               : image/jpegAudioFormat                                   : FLACFormat/Info                              : Free Lossless Audio CodecDuration                                 : 2 min 4 sBit rate mode                            : VariableBit rate                                 : 1 634 kb/sChannel(s)                               : 2 channelsChannel positions                        : Front: L RSampling rate                            : 48.0 kHzBit depth                                : 24 bitsStream size                              : 24.3 MiB (100%)Writing library                          : libFLAC 1.2.1 (UTC 2007-11-17)GeneralComplete name                            : D:\001 japan flac\2018 DADAROMA - This is LIVE (ONEMAN TOUR FINAL 2018.03.21) Hi Res flac\02 Phantom Pain.flacFormat                                   : FLACFormat/Info                              : Free Lossless Audio CodecFile size                                : 47.8 MiBDuration                                 : 3 min 27 sOverall bit rate mode                    : VariableOverall bit rate                         : 1 935 kb/sAlbum                                    : This is LIVE (ONEMAN TOUR FINAL 2018.03.21)Album/Performer                          : DADAROMA / DADAROMATrack name                               : ファントムペインTrack name/Position                      : 2Performer                                : DADAROMAGenre                                    : JRockRecorded date                            : 2018Cover                                    : YesCover type                               : Cover (front)Cover MIME                               : image/jpegAudioFormat                                   : FLACFormat/Info                              : Free Lossless Audio CodecDuration                                 : 3 min 27 sBit rate mode                            : VariableBit rate                                 : 1 930 kb/sChannel(s)                               : 2 channelsChannel positions                        : Front: L RSampling rate                            : 48.0 kHzBit depth                                : 24 bitsStream size                              : 47.7 MiB (100%)Writing library                          : libFLAC 1.2.1 (UTC 2007-11-17)GeneralComplete name                            : D:\001 japan flac\2018 DADAROMA - This is LIVE (ONEMAN TOUR FINAL 2018.03.21) Hi Res flac\03 MONEY.flacFormat                                   : FLACFormat/Info                              : Free Lossless Audio CodecFile size                                : 52.0 MiBDuration                                 : 3 min 51 sOverall bit rate mode                    : VariableOverall bit rate                         : 1 884 kb/sAlbum                                    : This is LIVE (ONEMAN TOUR FINAL 2018.03.21)Album/Performer                          : DADAROMA / DADAROMATrack name                               : MONEYTrack name/Position                      : 3Performer                                : DADAROMAGenre                                    : JRockRecorded date                            : 2018Cover                                    : YesCover type                               : Cover (front)Cover MIME                               : image/jpegAudioFormat                                   : FLACFormat/Info                              : Free Lossless Audio CodecDuration                                 : 3 min 51 sBit rate mode                            : VariableBit rate                                 : 1 880 kb/sChannel(s)                               : 2 channelsChannel positions                        : Front: L RSampling rate                            : 48.0 kHzBit depth                                : 24 bitsStream size                              : 51.9 MiB (100%)Writing library                          : libFLAC 1.2.1 (UTC 2007-11-17)GeneralComplete name                            : D:\001 japan flac\2018 DADAROMA - This is LIVE (ONEMAN TOUR FINAL 2018.03.21) Hi Res flac\04 Watashi Bangya ja Naiwa.flacFormat                                   : FLACFormat/Info                              : Free Lossless Audio CodecFile size                                : 48.7 MiBDuration                                 : 3 min 33 sOverall bit rate mode                    : VariableOverall bit rate                         : 1 915 kb/sAlbum                                    : This is LIVE (ONEMAN TOUR FINAL 2018.03.21)Album/Performer                          : DADAROMA / DADAROMATrack name                               : 私、バンギャじゃないわTrack name/Position                      : 4Performer                                : DADAROMAGenre                                    : JRockRecorded date                            : 2018Cover                                    : YesCover type                               : Cover (front)Cover MIME                               : image/jpegAudioFormat                                   : FLACFormat/Info                              : Free Lossless Audio CodecDuration                                 : 3 min 33 sBit rate mode                            : VariableBit rate                                 : 1 911 kb/sChannel(s)                               : 2 channelsChannel positions                        : Front: L RSampling rate                            : 48.0 kHzBit depth                                : 24 bitsStream size                              : 48.6 MiB (100%)Writing library                          : libFLAC 1.2.1 (UTC 2007-11-17)GeneralComplete name                            : D:\001 japan flac\2018 DADAROMA - This is LIVE (ONEMAN TOUR FINAL 2018.03.21) Hi Res flac\05 MASTURBATION..flacFormat                                   : FLACFormat/Info                              : Free Lossless Audio CodecFile size                                : 54.7 MiBDuration                                 : 3 min 56 sOverall bit rate mode                    : VariableOverall bit rate                         : 1 942 kb/sAlbum                                    : This is LIVE (ONEMAN TOUR FINAL 2018.03.21)Album/Performer                          : DADAROMA / DADAROMATrack name                               : 「MASTURBATION.」Track name/Position                      : 5Performer                                : DADAROMAGenre                                    : JRockRecorded date                            : 2018Cover                                    : YesCover type                               : Cover (front)Cover MIME                               : image/jpegAudioFormat                                   : FLACFormat/Info                              : Free Lossless Audio CodecDuration                                 : 3 min 56 sBit rate mode                            : VariableBit rate                                 : 1 938 kb/sChannel(s)                               : 2 channelsChannel positions                        : Front: L RSampling rate                            : 48.0 kHzBit depth                                : 24 bitsStream size                              : 54.6 MiB (100%)Writing library                          : libFLAC 1.2.1 (UTC 2007-11-17)GeneralComplete name                            : D:\001 japan flac\2018 DADAROMA - This is LIVE (ONEMAN TOUR FINAL 2018.03.21) Hi Res flac\06 THE KINKY.flacFormat                                   : FLACFormat/Info                              : Free Lossless Audio CodecFile size                                : 56.6 MiBDuration                                 : 4 min 10 sOverall bit rate mode                    : VariableOverall bit rate                         : 1 895 kb/sAlbum                                    : This is LIVE (ONEMAN TOUR FINAL 2018.03.21)Album/Performer                          : DADAROMA / DADAROMATrack name                               : 「THE KINKY」Track name/Position                      : 6Performer                                : DADAROMAGenre                                    : JRockRecorded date                            : 2018Cover                                    : YesCover type                               : Cover (front)Cover MIME                               : image/jpegAudioFormat                                   : FLACFormat/Info                              : Free Lossless Audio CodecDuration                                 : 4 min 10 sBit rate mode                            : VariableBit rate                                 : 1 891 kb/sChannel(s)                               : 2 channelsChannel positions                        : Front: L RSampling rate                            : 48.0 kHzBit depth                                : 24 bitsStream size                              : 56.4 MiB (100%)Writing library                          : libFLAC 1.2.1 (UTC 2007-11-17)GeneralComplete name                            : D:\001 japan flac\2018 DADAROMA - This is LIVE (ONEMAN TOUR FINAL 2018.03.21) Hi Res flac\07 Innocent Holic.flacFormat                                   : FLACFormat/Info                              : Free Lossless Audio CodecFile size                                : 52.2 MiBDuration                                 : 3 min 46 sOverall bit rate mode                    : VariableOverall bit rate                         : 1 938 kb/sAlbum                                    : This is LIVE (ONEMAN TOUR FINAL 2018.03.21)Album/Performer                          : DADAROMA / DADAROMATrack name                               : イノセント・ホリックTrack name/Position                      : 7Performer                                : DADAROMAGenre                                    : JRockRecorded date                            : 2018Cover                                    : YesCover type                               : Cover (front)Cover MIME                               : image/jpegAudioFormat                                   : FLACFormat/Info                              : Free Lossless Audio CodecDuration                                 : 3 min 46 sBit rate mode                            : VariableBit rate                                 : 1 934 kb/sChannel(s)                               : 2 channelsChannel positions                        : Front: L RSampling rate                            : 48.0 kHzBit depth                                : 24 bitsStream size                              : 52.1 MiB (100%)Writing library                          : libFLAC 1.2.1 (UTC 2007-11-17)GeneralComplete name                            : D:\001 japan flac\2018 DADAROMA - This is LIVE (ONEMAN TOUR FINAL 2018.03.21) Hi Res flac\08 Trend Identity.flacFormat                                   : FLACFormat/Info                              : Free Lossless Audio CodecFile size                                : 32.3 MiBDuration                                 : 2 min 22 sOverall bit rate mode                    : VariableOverall bit rate                         : 1 910 kb/sAlbum                                    : This is LIVE (ONEMAN TOUR FINAL 2018.03.21)Album/Performer                          : DADAROMA / DADAROMATrack name                               : トレンドアイデンティティTrack name/Position                      : 8Performer                                : DADAROMAGenre                                    : JRockRecorded date                            : 2018Cover                                    : YesCover type                               : Cover (front)Cover MIME                               : image/jpegAudioFormat                                   : FLACFormat/Info                              : Free Lossless Audio CodecDuration                                 : 2 min 22 sBit rate mode                            : VariableBit rate                                 : 1 903 kb/sChannel(s)                               : 2 channelsChannel positions                        : Front: L RSampling rate                            : 48.0 kHzBit depth                                : 24 bitsStream size                              : 32.2 MiB (100%)Writing library                          : libFLAC 1.2.1 (UTC 2007-11-17)GeneralComplete name                            : D:\001 japan flac\2018 DADAROMA - This is LIVE (ONEMAN TOUR FINAL 2018.03.21) Hi Res flac\09 ROMANCE GRAY.flacFormat                                   : FLACFormat/Info                              : Free Lossless Audio CodecFile size                                : 53.7 MiBDuration                                 : 3 min 57 sOverall bit rate mode                    : VariableOverall bit rate                         : 1 894 kb/sAlbum                                    : This is LIVE (ONEMAN TOUR FINAL 2018.03.21)Album/Performer                          : DADAROMA / DADAROMATrack name                               : ロマンスグレーTrack name/Position                      : 9Performer                                : DADAROMAGenre                                    : JRockRecorded date                            : 2018Cover                                    : YesCover type                               : Cover (front)Cover MIME                               : image/jpegAudioFormat                                   : FLACFormat/Info                              : Free Lossless Audio CodecDuration                                 : 3 min 57 sBit rate mode                            : VariableBit rate                                 : 1 890 kb/sChannel(s)                               : 2 channelsChannel positions                        : Front: L RSampling rate                            : 48.0 kHzBit depth                                : 24 bitsStream size                              : 53.5 MiB (100%)Writing library                          : libFLAC 1.2.1 (UTC 2007-11-17)GeneralComplete name                            : D:\001 japan flac\2018 DADAROMA - This is LIVE (ONEMAN TOUR FINAL 2018.03.21) Hi Res flac\10 Morphine #2.flacFormat                                   : FLACFormat/Info                              : Free Lossless Audio CodecFile size                                : 52.9 MiBDuration                                 : 3 min 55 sOverall bit rate mode                    : VariableOverall bit rate                         : 1 888 kb/sAlbum                                    : This is LIVE (ONEMAN TOUR FINAL 2018.03.21)Album/Performer                          : DADAROMA / DADAROMATrack name                               : モルヒネ♯2Track name/Position                      : 10Performer                                : DADAROMAGenre                                    : JRockRecorded date                            : 2018Cover                                    : YesCover type                               : Cover (front)Cover MIME                               : image/jpegAudioFormat                                   : FLACFormat/Info                              : Free Lossless Audio CodecDuration                                 : 3 min 55 sBit rate mode                            : VariableBit rate                                 : 1 884 kb/sChannel(s)                               : 2 channelsChannel positions                        : Front: L RSampling rate                            : 48.0 kHzBit depth                                : 24 bitsStream size                              : 52.8 MiB (100%)Writing library                          : libFLAC 1.2.1 (UTC 2007-11-17)GeneralComplete name                            : D:\001 japan flac\2018 DADAROMA - This is LIVE (ONEMAN TOUR FINAL 2018.03.21) Hi Res flac\11 Warui Kusuri.flacFormat                                   : FLACFormat/Info                              : Free Lossless Audio CodecFile size                                : 61.9 MiBDuration                                 : 4 min 44 sOverall bit rate mode                    : VariableOverall bit rate                         : 1 827 kb/sAlbum                                    : This is LIVE (ONEMAN TOUR FINAL 2018.03.21)Album/Performer                          : DADAROMA / DADAROMATrack name                               : 「わるいくすり」Track name/Position                      : 11Performer                                : DADAROMAGenre                                    : JRockRecorded date                            : 2018Cover                                    : YesCover type                               : Cover (front)Cover MIME                               : image/jpegAudioFormat                                   : FLACFormat/Info                              : Free Lossless Audio CodecDuration                                 : 4 min 44 sBit rate mode                            : VariableBit rate                                 : 1 824 kb/sChannel(s)                               : 2 channelsChannel positions                        : Front: L RSampling rate                            : 48.0 kHzBit depth                                : 24 bitsStream size                              : 61.8 MiB (100%)Writing library                          : libFLAC 1.2.1 (UTC 2007-11-17)GeneralComplete name                            : D:\001 japan flac\2018 DADAROMA - This is LIVE (ONEMAN TOUR FINAL 2018.03.21) Hi Res flac\12 Oboreru Sakana.flacFormat                                   : FLACFormat/Info                              : Free Lossless Audio CodecFile size                                : 72.3 MiBDuration                                 : 5 min 33 sOverall bit rate mode                    : VariableOverall bit rate                         : 1 819 kb/sAlbum                                    : This is LIVE (ONEMAN TOUR FINAL 2018.03.21)Album/Performer                          : DADAROMA / DADAROMATrack name                               : 「溺れる魚」Track name/Position                      : 12Performer                                : DADAROMAGenre                                    : JRockRecorded date                            : 2018Cover                                    : YesCover type                               : Cover (front)Cover MIME                               : image/jpegAudioFormat                                   : FLACFormat/Info                              : Free Lossless Audio CodecDuration                                 : 5 min 33 sBit rate mode                            : VariableBit rate                                 : 1 816 kb/sChannel(s)                               : 2 channelsChannel positions                        : Front: L RSampling rate                            : 48.0 kHzBit depth                                : 24 bitsStream size                              : 72.2 MiB (100%)Writing library                          : libFLAC 1.2.1 (UTC 2007-11-17)GeneralComplete name                            : D:\001 japan flac\2018 DADAROMA - This is LIVE (ONEMAN TOUR FINAL 2018.03.21) Hi Res flac\13 Ame no Waltz.flacFormat                                   : FLACFormat/Info                              : Free Lossless Audio CodecFile size                                : 62.2 MiBDuration                                 : 4 min 49 sOverall bit rate mode                    : VariableOverall bit rate                         : 1 804 kb/sAlbum                                    : This is LIVE (ONEMAN TOUR FINAL 2018.03.21)Album/Performer                          : DADAROMA / DADAROMATrack name                               : 「雨のワルツ」Track name/Position                      : 13Performer                                : DADAROMAGenre                                    : JRockRecorded date                            : 2018Cover                                    : YesCover type                               : Cover (front)Cover MIME                               : image/jpegAudioFormat                                   : FLACFormat/Info                              : Free Lossless Audio CodecDuration                                 : 4 min 49 sBit rate mode                            : VariableBit rate                                 : 1 801 kb/sChannel(s)                               : 2 channelsChannel positions                        : Front: L RSampling rate                            : 48.0 kHzBit depth                                : 24 bitsStream size                              : 62.1 MiB (100%)Writing library                          : libFLAC 1.2.1 (UTC 2007-11-17)GeneralComplete name                            : D:\001 japan flac\2018 DADAROMA - This is LIVE (ONEMAN TOUR FINAL 2018.03.21) Hi Res flac\14 Tsuki no Uta.flacFormat                                   : FLACFormat/Info                              : Free Lossless Audio CodecFile size                                : 50.7 MiBDuration                                 : 3 min 52 sOverall bit rate mode                    : VariableOverall bit rate                         : 1 832 kb/sAlbum                                    : This is LIVE (ONEMAN TOUR FINAL 2018.03.21)Album/Performer                          : DADAROMA / DADAROMATrack name                               : 月のうたTrack name/Position                      : 14Performer                                : DADAROMAGenre                                    : JRockRecorded date                            : 2018Cover                                    : YesCover type                               : Cover (front)Cover MIME                               : image/jpegAudioFormat                                   : FLACFormat/Info                              : Free Lossless Audio CodecDuration                                 : 3 min 52 sBit rate mode                            : VariableBit rate                                 : 1 828 kb/sChannel(s)                               : 2 channelsChannel positions                        : Front: L RSampling rate                            : 48.0 kHzBit depth                                : 24 bitsStream size                              : 50.6 MiB (100%)Writing library                          : libFLAC 1.2.1 (UTC 2007-11-17)GeneralComplete name                            : D:\001 japan flac\2018 DADAROMA - This is LIVE (ONEMAN TOUR FINAL 2018.03.21) Hi Res flac\15 Tokekomenai Zarazara na Geijutsu wo Kimi ga Koroshitekurenaika.flacFormat                                   : FLACFormat/Info                              : Free Lossless Audio CodecFile size                                : 54.5 MiBDuration                                 : 4 min 2 sOverall bit rate mode                    : VariableOverall bit rate                         : 1 886 kb/sAlbum                                    : This is LIVE (ONEMAN TOUR FINAL 2018.03.21)Album/Performer                          : DADAROMA / DADAROMATrack name                               : 融け込めないざらざらな芸術を君が殺してくれないかTrack name/Position                      : 15Performer                                : DADAROMAGenre                                    : JRockRecorded date                            : 2018Cover                                    : YesCover type                               : Cover (front)Cover MIME                               : image/jpegAudioFormat                                   : FLACFormat/Info                              : Free Lossless Audio CodecDuration                                 : 4 min 2 sBit rate mode                            : VariableBit rate                                 : 1 882 kb/sChannel(s)                               : 2 channelsChannel positions                        : Front: L RSampling rate                            : 48.0 kHzBit depth                                : 24 bitsStream size                              : 54.4 MiB (100%)Writing library                          : libFLAC 1.2.1 (UTC 2007-11-17)GeneralComplete name                            : D:\001 japan flac\2018 DADAROMA - This is LIVE (ONEMAN TOUR FINAL 2018.03.21) Hi Res flac\16 Shiroi Geranium.flacFormat                                   : FLACFormat/Info                              : Free Lossless Audio CodecFile size                                : 51.9 MiBDuration                                 : 3 min 49 sOverall bit rate mode                    : VariableOverall bit rate                         : 1 892 kb/sAlbum                                    : This is LIVE (ONEMAN TOUR FINAL 2018.03.21)Album/Performer                          : DADAROMA / DADAROMATrack name                               : 白いゼラニウムTrack name/Position                      : 16Performer                                : DADAROMAGenre                                    : JRockRecorded date                            : 2018Cover                                    : YesCover type                               : Cover (front)Cover MIME                               : image/jpegAudioFormat                                   : FLACFormat/Info                              : Free Lossless Audio CodecDuration                                 : 3 min 49 sBit rate mode                            : VariableBit rate                                 : 1 888 kb/sChannel(s)                               : 2 channelsChannel positions                        : Front: L RSampling rate                            : 48.0 kHzBit depth                                : 24 bitsStream size                              : 51.7 MiB (100%)Writing library                          : libFLAC 1.2.1 (UTC 2007-11-17)GeneralComplete name                            : D:\001 japan flac\2018 DADAROMA - This is LIVE (ONEMAN TOUR FINAL 2018.03.21) Hi Res flac\17 Belka to Strelka.flacFormat                                   : FLACFormat/Info                              : Free Lossless Audio CodecFile size                                : 70.1 MiBDuration                                 : 5 min 15 sOverall bit rate mode                    : VariableOverall bit rate                         : 1 863 kb/sAlbum                                    : This is LIVE (ONEMAN TOUR FINAL 2018.03.21)Album/Performer                          : DADAROMA / DADAROMATrack name                               : ベルカとストレルカTrack name/Position                      : 17Performer                                : DADAROMAGenre                                    : JRockRecorded date                            : 2018Cover                                    : YesCover type                               : Cover (front)Cover MIME                               : image/jpegAudioFormat                                   : FLACFormat/Info                              : Free Lossless Audio CodecDuration                                 : 5 min 15 sBit rate mode                            : VariableBit rate                                 : 1 860 kb/sChannel(s)                               : 2 channelsChannel positions                        : Front: L RSampling rate                            : 48.0 kHzBit depth                                : 24 bitsStream size                              : 70.0 MiB (100%)Writing library                          : libFLAC 1.2.1 (UTC 2007-11-17)GeneralComplete name                            : D:\001 japan flac\2018 DADAROMA - This is LIVE (ONEMAN TOUR FINAL 2018.03.21) Hi Res flac\18 Yume Tarareba.flacFormat                                   : FLACFormat/Info                              : Free Lossless Audio CodecFile size                                : 61.0 MiBDuration                                 : 4 min 30 sOverall bit rate mode                    : VariableOverall bit rate                         : 1 892 kb/sAlbum                                    : This is LIVE (ONEMAN TOUR FINAL 2018.03.21)Album/Performer                          : DADAROMA / DADAROMATrack name                               : 「夢タラレバ」Track name/Position                      : 18Performer                                : DADAROMAGenre                                    : JRockRecorded date                            : 2018Cover                                    : YesCover type                               : Cover (front)Cover MIME                               : image/jpegAudioFormat                                   : FLACFormat/Info                              : Free Lossless Audio CodecDuration                                 : 4 min 30 sBit rate mode                            : VariableBit rate                                 : 1 889 kb/sChannel(s)                               : 2 channelsChannel positions                        : Front: L RSampling rate                            : 48.0 kHzBit depth                                : 24 bitsStream size                              : 60.9 MiB (100%)Writing library                          : libFLAC 1.2.1 (UTC 2007-11-17)GeneralComplete name                            : D:\001 japan flac\2018 DADAROMA - This is LIVE (ONEMAN TOUR FINAL 2018.03.21) Hi Res flac\19 Risley Circus.flacFormat                                   : FLACFormat/Info                              : Free Lossless Audio CodecFile size                                : 60.8 MiBDuration                                 : 4 min 28 sOverall bit rate mode                    : VariableOverall bit rate                         : 1 902 kb/sAlbum                                    : This is LIVE (ONEMAN TOUR FINAL 2018.03.21)Album/Performer                          : DADAROMA / DADAROMATrack name                               : 「リズリーサーカス」Track name/Position                      : 19Performer                                : DADAROMAGenre                                    : JRockRecorded date                            : 2018Cover                                    : YesCover type                               : Cover (front)Cover MIME                               : image/jpegAudioFormat                                   : FLACFormat/Info                              : Free Lossless Audio CodecDuration                                 : 4 min 28 sBit rate mode                            : VariableBit rate                                 : 1 898 kb/sChannel(s)                               : 2 channelsChannel positions                        : Front: L RSampling rate                            : 48.0 kHzBit depth                                : 24 bitsStream size                              : 60.7 MiB (100%)Writing library                          : libFLAC 1.2.1 (UTC 2007-11-17)GeneralComplete name                            : D:\001 japan flac\2018 DADAROMA - This is LIVE (ONEMAN TOUR FINAL 2018.03.21) Hi Res flac\20 Quiet Red.flacFormat                                   : FLACFormat/Info                              : Free Lossless Audio CodecFile size                                : 63.9 MiBDuration                                 : 4 min 54 sOverall bit rate mode                    : VariableOverall bit rate                         : 1 818 kb/sAlbum                                    : This is LIVE (ONEMAN TOUR FINAL 2018.03.21)Album/Performer                          : DADAROMA / DADAROMATrack name                               : クワイエットレッドTrack name/Position                      : 20Performer                                : DADAROMAGenre                                    : JRockRecorded date                            : 2018Cover                                    : YesCover type                               : Cover (front)Cover MIME                               : image/jpegAudioFormat                                   : FLACFormat/Info                              : Free Lossless Audio CodecDuration                                 : 4 min 54 sBit rate mode                            : VariableBit rate                                 : 1 814 kb/sChannel(s)                               : 2 channelsChannel positions                        : Front: L RSampling rate                            : 48.0 kHzBit depth                                : 24 bitsStream size                              : 63.8 MiB (100%)Writing library                          : libFLAC 1.2.1 (UTC 2007-11-17)GeneralComplete name                            : D:\001 japan flac\2018 DADAROMA - This is LIVE (ONEMAN TOUR FINAL 2018.03.21) Hi Res flac\21 Pornograph.flacFormat                                   : FLACFormat/Info                              : Free Lossless Audio CodecFile size                                : 67.6 MiBDuration                                 : 5 min 1 sOverall bit rate mode                    : VariableOverall bit rate                         : 1 881 kb/sAlbum                                    : This is LIVE (ONEMAN TOUR FINAL 2018.03.21)Album/Performer                          : DADAROMA / DADAROMATrack name                               : 「ポルノグラフ」Track name/Position                      : 21Performer                                : DADAROMAGenre                                    : JRockRecorded date                            : 2018Cover                                    : YesCover type                               : Cover (front)Cover MIME                               : image/jpegAudioFormat                                   : FLACFormat/Info                              : Free Lossless Audio CodecDuration                                 : 5 min 1 sBit rate mode                            : VariableBit rate                                 : 1 878 kb/sChannel(s)                               : 2 channelsChannel positions                        : Front: L RSampling rate                            : 48.0 kHzBit depth                                : 24 bitsStream size                              : 67.5 MiB (100%)Writing library                          : libFLAC 1.2.1 (UTC 2007-11-17)GeneralComplete name                            : D:\001 japan flac\2018 DADAROMA - This is LIVE (ONEMAN TOUR FINAL 2018.03.21) Hi Res flac\22 KIDS WAR.flacFormat                                   : FLACFormat/Info                              : Free Lossless Audio CodecFile size                                : 63.5 MiBDuration                                 : 4 min 44 sOverall bit rate mode                    : VariableOverall bit rate                         : 1 870 kb/sAlbum                                    : This is LIVE (ONEMAN TOUR FINAL 2018.03.21)Album/Performer                          : DADAROMA / DADAROMATrack name                               : KIDS WARTrack name/Position                      : 22Performer                                : DADAROMAGenre                                    : JRockRecorded date                            : 2018Cover                                    : YesCover type                               : Cover (front)Cover MIME                               : image/jpegAudioFormat                                   : FLACFormat/Info                              : Free Lossless Audio CodecDuration                                 : 4 min 44 sBit rate mode                            : VariableBit rate                                 : 1 867 kb/sChannel(s)                               : 2 channelsChannel positions                        : Front: L RSampling rate                            : 48.0 kHzBit depth                                : 24 bitsStream size                              : 63.4 MiB (100%)Writing library                          : libFLAC 1.2.1 (UTC 2007-11-17)GeneralComplete name                            : D:\001 japan flac\2018 DADAROMA - This is LIVE (ONEMAN TOUR FINAL 2018.03.21) Hi Res flac\23 Aruhi, Sekai wa Utsukushii to Omotta..flacFormat                                   : FLACFormat/Info                              : Free Lossless Audio CodecFile size                                : 92.7 MiBDuration                                 : 7 min 15 sOverall bit rate mode                    : VariableOverall bit rate                         : 1 783 kb/sAlbum                                    : This is LIVE (ONEMAN TOUR FINAL 2018.03.21)Album/Performer                          : DADAROMA / DADAROMATrack name                               : ある日、世界は美しいと思った。Track name/Position                      : 23Performer                                : DADAROMAGenre                                    : JRockRecorded date                            : 2018Cover                                    : YesCover type                               : Cover (front)Cover MIME                               : image/jpegAudioFormat                                   : FLACFormat/Info                              : Free Lossless Audio CodecDuration                                 : 7 min 15 sBit rate mode                            : VariableBit rate                                 : 1 781 kb/sChannel(s)                               : 2 channelsChannel positions                        : Front: L RSampling rate                            : 48.0 kHzBit depth                                : 24 bitsStream size                              : 92.6 MiB (100%)Writing library                          : libFLAC 1.2.1 (UTC 2007-11-17)GeneralComplete name                            : D:\001 japan flac\2018 DADAROMA - This is LIVE (ONEMAN TOUR FINAL 2018.03.21) Hi Res flac\24 Risley Circus - Yoshiatsu Ver..flacFormat                                   : FLACFormat/Info                              : Free Lossless Audio CodecFile size                                : 60.7 MiBDuration                                 : 4 min 28 sOverall bit rate mode                    : VariableOverall bit rate                         : 1 898 kb/sAlbum                                    : This is LIVE (ONEMAN TOUR FINAL 2018.03.21)Album/Performer                          : DADAROMA / DADAROMATrack name                               : 「リズリーサーカス」……よしあつVer.【BONUS TRACK】Track name/Position                      : 24Performer                                : DADAROMAGenre                                    : JRockRecorded date                            : 2018Cover                                    : YesCover type                               : Cover (front)Cover MIME                               : image/jpegAudioFormat                                   : FLACFormat/Info                              : Free Lossless Audio CodecDuration                                 : 4 min 28 sBit rate mode                            : VariableBit rate                                 : 1 894 kb/sChannel(s)                               : 2 channelsChannel positions                        : Front: L RSampling rate                            : 48.0 kHzBit depth                                : 24 bitsStream size                              : 60.6 MiB (100%)Writing library                          : libFLAC 1.2.1 (UTC 2007-11-17)GeneralComplete name                            : D:\001 japan flac\2018 DADAROMA - This is LIVE (ONEMAN TOUR FINAL 2018.03.21) Hi Res flac\25 Morphine #2 - Takashi Ver..flacFormat                                   : FLACFormat/Info                              : Free Lossless Audio CodecFile size                                : 51.9 MiBDuration                                 : 3 min 50 sOverall bit rate mode                    : VariableOverall bit rate                         : 1 888 kb/sAlbum                                    : This is LIVE (ONEMAN TOUR FINAL 2018.03.21)Album/Performer                          : DADAROMA / DADAROMATrack name                               : モルヒネ♯2……太嘉志Ver.【BONUS TRACK】Track name/Position                      : 25Performer                                : DADAROMAGenre                                    : JRockRecorded date                            : 2018Cover                                    : YesCover type                               : Cover (front)Cover MIME                               : image/jpegAudioFormat                                   : FLACFormat/Info                              : Free Lossless Audio CodecDuration                                 : 3 min 50 sBit rate mode                            : VariableBit rate                                 : 1 884 kb/sChannel(s)                               : 2 channelsChannel positions                        : Front: L RSampling rate                            : 48.0 kHzBit depth                                : 24 bitsStream size                              : 51.8 MiB (100%)Writing library                          : libFLAC 1.2.1 (UTC 2007-11-17)GeneralComplete name                            : D:\001 japan flac\2018 DADAROMA - This is LIVE (ONEMAN TOUR FINAL 2018.03.21) Hi Res flac\26 Innocent Holic - Tomo Ver..flacFormat                                   : FLACFormat/Info                              : Free Lossless Audio CodecFile size                                : 50.4 MiBDuration                                 : 3 min 40 sOverall bit rate mode                    : VariableOverall bit rate                         : 1 921 kb/sAlbum                                    : This is LIVE (ONEMAN TOUR FINAL 2018.03.21)Album/Performer                          : DADAROMA / DADAROMATrack name                               : イノセント・ホリック……朋Ver.【BONUS TRACK】Track name/Position                      : 26Performer                                : DADAROMAGenre                                    : JRockRecorded date                            : 2018Cover                                    : YesCover type                               : Cover (front)Cover MIME                               : image/jpegAudioFormat                                   : FLACFormat/Info                              : Free Lossless Audio CodecDuration                                 : 3 min 40 sBit rate mode                            : VariableBit rate                                 : 1 917 kb/sChannel(s)                               : 2 channelsChannel positions                        : Front: L RSampling rate                            : 48.0 kHzBit depth                                : 24 bitsStream size                              : 50.3 MiB (100%)Writing library                          : libFLAC 1.2.1 (UTC 2007-11-17)GeneralComplete name                            : D:\001 japan flac\2018 DADAROMA - This is LIVE (ONEMAN TOUR FINAL 2018.03.21) Hi Res flac\27 Belka to Strelka - Yusuke Ver..flacFormat                                   : FLACFormat/Info                              : Free Lossless Audio CodecFile size                                : 61.6 MiBDuration                                 : 4 min 40 sOverall bit rate mode                    : VariableOverall bit rate                         : 1 845 kb/sAlbum                                    : This is LIVE (ONEMAN TOUR FINAL 2018.03.21)Album/Performer                          : DADAROMA / DADAROMATrack name                               : ベルカとストレルカ……裕介Ver.【BONUS TRACK】Track name/Position                      : 27Performer                                : DADAROMAGenre                                    : JRockRecorded date                            : 2018Cover                                    : YesCover type                               : Cover (front)Cover MIME                               : image/jpegAudioFormat                                   : FLACFormat/Info                              : Free Lossless Audio CodecDuration                                 : 4 min 40 sBit rate mode                            : VariableBit rate                                 : 1 841 kb/sChannel(s)                               : 2 channelsChannel positions                        : Front: L RSampling rate                            : 48.0 kHzBit depth                                : 24 bitsStream size                              : 61.5 MiB (100%)Writing library                          : libFLAC 1.2.1 (UTC 2007-11-17)GeneralComplete name                            : D:\001 japan flac\2018 DADAROMA - This is LIVE (ONEMAN TOUR FINAL 2018.03.21) Hi Res flac\28 Outro.flacFormat                                   : FLACFormat/Info                              : Free Lossless Audio CodecFile size                                : 32.1 MiBDuration                                 : 2 min 32 sOverall bit rate mode                    : VariableOverall bit rate                         : 1 766 kb/sAlbum                                    : This is LIVE (ONEMAN TOUR FINAL 2018.03.21)Album/Performer                          : DADAROMA / DADAROMATrack name                               : OutroTrack name/Position                      : 28Performer                                : DADAROMAGenre                                    : JRockRecorded date                            : 2018Writing application                      : reference libFLAC 1.3.0 20130526Cover                                    : YesCover type                               : Cover (front)Cover MIME                               : image/jpegAudioFormat                                   : FLACFormat/Info                              : Free Lossless Audio CodecDuration                                 : 2 min 32 sBit rate mode                            : VariableBit rate                                 : 1 760 kb/sChannel(s)                               : 2 channelsChannel positions                        : Front: L RSampling rate                            : 48.0 kHzBit depth                                : 24 bitsStream size                              : 32.0 MiB (100%)Writing library                          : libFLAC 1.2.1 (UTC 2007-11-17)

Скриншот спектра частот



Доп. информация: Это аудио рип с DVD. На Jpopsuki другой рип - нет бонус треков и саунд отличается.
Источник (релизер): Baidu

Для скачки контента: [Установить программу-клиент] и кликнуть по - СкачатьБезопасность: клиент проверен АВ Касперского

[asmlocator.ru].t585396.torrent 
Торрент: Зарегистрирован [ 2018-11-09 15:20 ] · 6306A7E62DF945F902293865051CA52EA7FC0B5C

Скачать .torrent

Скачать

17 KB

Статус: проверено
Скачан: 0 раз
Размер: 1,53 GB
terms.php
[Профиль] [ЛС]
Показать сообщения:    
Ответить на тему

Текущее время: 16-Ноя 19:06

Часовой пояс: UTC ± 0



Вы не можете начинать темы
Вы не можете отвечать на сообщения
Вы не можете редактировать свои сообщения
Вы не можете удалять свои сообщения
Вы не можете голосовать в опросах
Вы не можете прикреплять файлы к сообщениям
Вы можете скачивать файлы