(Stoner/Doom Metal) [WEB] Conan - Man Is Myth (Early Demos) (Compilation) - 2017, FLAC (tracks), lossless

Ответить на тему
Статистика раздачи
Размер:  315 MB   |    Зарегистрирован:  7 дней   |    Скачан:  0 раз

Полного источника не было: Никогда

 
   
 
 
Автор Сообщение

star21 ®

Пол: Женский

Стаж: 3 года

Сообщений: 552917

Откуда: Екатеринбург

Создавать темы 09-Ноя-2018 15:20

[Цитировать]

Conan / Man Is Myth (Early Demos) Жанр: Stoner/Doom Metal
Носитель: WEB
Год издания: 2017
Страна исполнителя (группы): United Kingdom
Аудиокодек: FLAC (*.flac)
Тип рипа: tracks
Битрейт аудио: lossless
Продолжительность: 0:55:27
Источник (релизер): deezer
Наличие сканов в содержимом раздачи: нет
Треклист:
01. Battle in the Swamp (Rehearsal Room Demo 2009) (3:47)
02. Satsumo (Rehearsal Room Demo 2009) (6:50)
03. Krull (Rehearsal Room Demo 2009) (7:25)
04. Satsumo (Rehearsal Room Demo 2006) (9:44)
05. Gravity Chasm (Studio Demo 2012) (6:19)
06. Foehammer (Studio Demo 2012) (6:24)
07. Domed Iron Boss (Studio Demo 2012) (14:59)

Лог проверки качества

CUE Corrector v. 8.3.4 / b. 890 (Nov. 08, 2018)————————————————————————————————————————————————————————————————————————Conan / Man Is Myth (Early Demos)Folder: Conan - Man Is Myth (Early Demos) 2017Audio files:    01 - Battle in the Swamp (Rehearsal Room Demo 2009).flac [03:47.067; FLAC • 735 kbps • 16 bit \ 44100 Hz • stereo; 19.91 MB (20 880 014 B)]    02 - Satsumo (Rehearsal Room Demo 2009).flac [06:49.547; FLAC • 669 kbps • 16 bit \ 44100 Hz • stereo; 32.68 MB (34 263 978 B)]    03 - Krull (Rehearsal Room Demo 2009).flac [07:25.267; FLAC • 643 kbps • 16 bit \ 44100 Hz • stereo; 34.17 MB (35 830 675 B)]    04 - Satsumo (Rehearsal Room Demo 2006).flac [09:43.907; FLAC • 643 kbps • 16 bit \ 44100 Hz • stereo; 44.81 MB (46 988 982 B)]    05 - Gravity Chasm (Studio Demo 2012).flac [06:19.213; FLAC • 1001 kbps • 16 bit \ 44100 Hz • stereo; 45.26 MB (47 460 397 B)]    06 - Foehammer (Studio Demo 2012).flac [06:23.547; FLAC • 929 kbps • 16 bit \ 44100 Hz • stereo; 42.50 MB (44 562 638 B)]    07 - Domed Iron Boss (Studio Demo 2012).flac [14:58.667; FLAC • 873 kbps • 16 bit \ 44100 Hz • stereo; 93.59 MB (98 139 493 B)]Accuracy: -m0File 01 - Battle in the Swamp (Rehearsal Room Demo 2009) - 100% CDDA [03:47:05]File 02 - Satsumo (Rehearsal Room Demo 2009)             - 100% CDDA [06:49:41]File 03 - Krull (Rehearsal Room Demo 2009)               - 100% CDDA [07:25:20]File 04 - Satsumo (Rehearsal Room Demo 2006)             - 100% CDDA [09:43:68]File 05 - Gravity Chasm (Studio Demo 2012)               - 100% CDDA [06:19:16]File 06 - Foehammer (Studio Demo 2012)                   - 100% CDDA [06:23:41]File 07 - Domed Iron Boss (Studio Demo 2012)             -  99% CDDA [14:58:50]————— Summary: —————These tracks looks like CDDA with probability 100%.————————————————————————————————————————————————————————————————————————ANALYZER:    auCDtect: CD records authenticity detector, version 0.8.2    Copyright (c) 2004 Oleg Berngardt. All rights reserved.    Copyright (c) 2004 Alexander Djourik. All rights reserved.Time elapsed: 5 m 59 sLog created at November 09, 2018 15:42:50=== 7DBC09EE6C89AB268E9CAB2BD6560695C7215B8DF9481C3896F414D3A8146EE1 ===

Dynamic Range

foobar2000 1.3.14 / Dynamic Range Meter 1.1.1log date: 2018-11-09 15:36:56--------------------------------------------------------------------------------Analyzed: Conan / Man Is Myth (Early Demos)--------------------------------------------------------------------------------DR         Peak         RMS     Duration Track--------------------------------------------------------------------------------DR5       -0.19 dB    -6.36 dB      3:47 01-Battle in the Swamp (Rehearsal Room Demo 2009)DR6       -0.20 dB    -7.52 dB      6:50 02-Satsumo (Rehearsal Room Demo 2009)DR5       -0.19 dB    -6.81 dB      7:25 03-Krull (Rehearsal Room Demo 2009)DR6       -0.19 dB    -8.24 dB      9:44 04-Satsumo (Rehearsal Room Demo 2006)DR6       -0.19 dB    -6.33 dB      6:19 05-Gravity Chasm (Studio Demo 2012)DR5       -0.19 dB    -6.36 dB      6:24 06-Foehammer (Studio Demo 2012)DR5       -0.19 dB    -6.91 dB     14:59 07-Domed Iron Boss (Studio Demo 2012)--------------------------------------------------------------------------------Number of tracks:  7Official DR value: DR6Samplerate:        44100 HzChannels:          2Bits per sample:   16Bitrate:           837 kbpsCodec:             FLAC================================================================================

Для скачки контента: [Установить программу-клиент] и кликнуть по - СкачатьБезопасность: клиент проверен АВ Касперского

[asmlocator.ru].t585390.torrent 
Торрент: Зарегистрирован [ 2018-11-09 15:20 ] · F601A97FE52E44788B1B542176823CB371451031

Скачать .torrent

Скачать

13 KB

Статус: проверено
Скачан: 0 раз
Размер: 315 MB
terms.php
[Профиль] [ЛС]
Показать сообщения:    
Ответить на тему

Текущее время: 16-Ноя 19:04

Часовой пояс: UTC ± 0



Вы не можете начинать темы
Вы не можете отвечать на сообщения
Вы не можете редактировать свои сообщения
Вы не можете удалять свои сообщения
Вы не можете голосовать в опросах
Вы не можете прикреплять файлы к сообщениям
Вы можете скачивать файлы