(Pop) [CD] Русские Диджеи - Назад в СССР. Часть 1 - 2007, FLAC (tracks+.cue), lossless

Ответить на тему
Статистика раздачи
Размер:  342 MB   |    Зарегистрирован:  7 дней   |    Скачан:  0 раз
Сидов:  4  [  0 KB/s  ]   Подробная статистика пиров
 
   
 
 
Автор Сообщение

star21 ®

Пол: Женский

Стаж: 3 года

Сообщений: 552917

Откуда: Екатеринбург

Создавать темы 09-Ноя-2018 15:20

[Цитировать]

Русские Диджеи / Назад в СССР. Часть 1Жанр: Pop
Носитель: CD
Год издания: 2007
Издатель (лейбл): Торговая Фирма "Никитин"
Номер по каталогу: ZM012007
Аудиокодек: FLAC (*.flac)
Тип рипа: tracks+.cue
Битрейт аудио: lossless
Продолжительность: 36:07
Источник (релизер): свой рип
Наличие сканов в содержимом раздачи: да
Треклист:01. Русские Диджеи - Иван Васильевич Меняет Профессию. Часть 1 (Звенит Январская Вьюга) (3:26)
02. Русские Диджеи - Бриллиантовая Рука. Часть 1 (Песня Про Зайцев). Русская Версия (3:45)
03. Русские Диджеи - Чародеи (Три Белых Коня) (3:28)
04. Русские Диджеи - Иван Васильевич Меняет Профессию. Часть 2 (Вдруг Как В Сказке) (2:43)
05. Русские Диджеи - Бриллиантовая Рука. Часть 2 (Остров Невезения) (3:30)
06. Русские Диджеи - Ну, Погоди! (Снегурочка Ремикс) (3:12)
07. Русские Диджеи - Кустурица 2006 Ремикс (3:39)
08. Русские Диджеи - Бриллиантовая Рука. Часть 1 (Песня Про Зайцев). English Version (3:45)
09. Русские Диджеи - Иван Васильевич Меняет Профессию. Часть 2 (Вдруг Как В Сказке). Best Radio Remix (2:43)
10. Русские Диджеи - Ну, Погоди! (Dance Remix) (2:57)
11. Русские Диджеи - Кавказская Пленница. Часть 2 (2:59)

Лог создания рипа

Exact Audio Copy V1.3 from 2. September 2016EAC extraction logfile from 27. October 2018, 20:48Русские Диджеи / Назад в СССР. Часть 1Used drive  : ASUS    DRW-24B5ST   Adapter: 6  ID: 0Read mode               : SecureUtilize accurate stream : YesDefeat audio cache      : YesMake use of C2 pointers : NoRead offset correction                      : 6Overread into Lead-In and Lead-Out          : NoFill up missing offset samples with silence : YesDelete leading and trailing silent blocks   : NoNull samples used in CRC calculations       : YesUsed interface                              : Installed external ASPI interfaceGap handling                                : Appended to previous trackUsed output format              : User Defined EncoderSelected bitrate                : 128 kBit/sQuality                         : HighAdd ID3 tag                     : NoCommand line compressor         : D:\flac-1.3.2-win\win64\flac.exeAdditional command line options : -8 -V -T "ARTIST=%artist%" -T "TITLE=%title%" -T "ALBUM=%albumtitle%" -T "DATE=%year%" -T "TRACKNUMBER=%tracknr%" -T "GENRE=%genre%" -T "COMMENT=ripped by Andy aka yetiisyou" %source%TOC of the extracted CD     Track |   Start  |  Length  | Start sector | End sector    ---------------------------------------------------------        1  |  0:00.00 |  3:25.66 |         0    |    15440        2  |  3:25.66 |  3:44.49 |     15441    |    32289        3  |  7:10.40 |  3:27.54 |     32290    |    47868        4  | 10:38.19 |  2:43.01 |     47869    |    60094        5  | 13:21.20 |  3:29.57 |     60095    |    75826        6  | 16:51.02 |  3:12.29 |     75827    |    90255        7  | 20:03.31 |  3:39.23 |     90256    |   106703        8  | 23:42.54 |  3:44.74 |    106704    |   123577        9  | 27:27.53 |  2:42.67 |    123578    |   135794       10  | 30:10.45 |  2:57.18 |    135795    |   149087       11  | 33:07.63 |  2:59.09 |    149088    |   162521Track  1     Filename E:\!Ripped by Andy aka yetiisyou\Русские Диджеи - Назад в СССР. Часть 1 [ZM012007] [2007]\01. Русские Диджеи - Иван Васильевич Меняет Профессию. Часть 1 (Звенит Январская Вьюга).wav     Pre-gap length  0:00:02.00     Peak level 96.6 %     Extraction speed 3.3 X     Track quality 100.0 %     Test CRC AE6D05E6     Copy CRC AE6D05E6     Accurately ripped (confidence 1)  [841CC5F6]  (AR v2)     Copy OKTrack  2     Filename E:\!Ripped by Andy aka yetiisyou\Русские Диджеи - Назад в СССР. Часть 1 [ZM012007] [2007]\02. Русские Диджеи - Бриллиантовая Рука. Часть 1 (Песня Про Зайцев). Русская Версия.wav     Pre-gap length  0:00:01.53     Peak level 96.6 %     Extraction speed 3.7 X     Track quality 100.0 %     Test CRC B825E29F     Copy CRC B825E29F     Accurately ripped (confidence 1)  [ED69BEE4]  (AR v2)     Copy OKTrack  3     Filename E:\!Ripped by Andy aka yetiisyou\Русские Диджеи - Назад в СССР. Часть 1 [ZM012007] [2007]\03. Русские Диджеи - Чародеи (Три Белых Коня).wav     Pre-gap length  0:00:01.53     Peak level 96.6 %     Extraction speed 4.0 X     Track quality 100.0 %     Test CRC FFC9300E     Copy CRC FFC9300E     Accurately ripped (confidence 1)  [629C55E8]  (AR v2)     Copy OKTrack  4     Filename E:\!Ripped by Andy aka yetiisyou\Русские Диджеи - Назад в СССР. Часть 1 [ZM012007] [2007]\04. Русские Диджеи - Иван Васильевич Меняет Профессию. Часть 2 (Вдруг Как В Сказке).wav     Pre-gap length  0:00:01.53     Peak level 96.6 %     Extraction speed 3.1 X     Track quality 99.9 %     Test CRC 5BBA1C5F     Copy CRC 5BBA1C5F     Accurately ripped (confidence 1)  [B3FDDFAA]  (AR v2)     Copy OKTrack  5     Filename E:\!Ripped by Andy aka yetiisyou\Русские Диджеи - Назад в СССР. Часть 1 [ZM012007] [2007]\05. Русские Диджеи - Бриллиантовая Рука. Часть 2 (Остров Невезения).wav     Pre-gap length  0:00:01.53     Peak level 96.1 %     Extraction speed 4.4 X     Track quality 100.0 %     Test CRC 139CF204     Copy CRC 139CF204     Accurately ripped (confidence 1)  [E8A1DA42]  (AR v2)     Copy OKTrack  6     Filename E:\!Ripped by Andy aka yetiisyou\Русские Диджеи - Назад в СССР. Часть 1 [ZM012007] [2007]\06. Русские Диджеи - Ну, Погоди! (Снегурочка Ремикс).wav     Pre-gap length  0:00:01.53     Peak level 96.6 %     Extraction speed 4.6 X     Track quality 100.0 %     Test CRC 846F9DD8     Copy CRC 846F9DD8     Accurately ripped (confidence 1)  [51F64473]  (AR v2)     Copy OKTrack  7     Filename E:\!Ripped by Andy aka yetiisyou\Русские Диджеи - Назад в СССР. Часть 1 [ZM012007] [2007]\07. Русские Диджеи - Кустурица 2006 Ремикс.wav     Pre-gap length  0:00:01.53     Peak level 96.6 %     Extraction speed 4.9 X     Track quality 100.0 %     Test CRC C88E7FA2     Copy CRC C88E7FA2     Accurately ripped (confidence 1)  [DC80605C]  (AR v2)     Copy OKTrack  8     Filename E:\!Ripped by Andy aka yetiisyou\Русские Диджеи - Назад в СССР. Часть 1 [ZM012007] [2007]\08. Русские Диджеи - Бриллиантовая Рука. Часть 1 (Песня Про Зайцев). English Version.wav     Pre-gap length  0:00:01.53     Peak level 95.9 %     Extraction speed 5.2 X     Track quality 100.0 %     Test CRC C828907B     Copy CRC C828907B     Accurately ripped (confidence 1)  [508A4C53]  (AR v2)     Copy OKTrack  9     Filename E:\!Ripped by Andy aka yetiisyou\Русские Диджеи - Назад в СССР. Часть 1 [ZM012007] [2007]\09. Русские Диджеи - Иван Васильевич Меняет Профессию. Часть 2 (Вдруг Как В Сказке). Best Radio Remix.wav     Pre-gap length  0:00:01.53     Peak level 96.6 %     Extraction speed 5.1 X     Track quality 100.0 %     Test CRC 2D565FD6     Copy CRC 2D565FD6     Accurately ripped (confidence 1)  [AAB0F993]  (AR v2)     Copy OKTrack 10     Filename E:\!Ripped by Andy aka yetiisyou\Русские Диджеи - Назад в СССР. Часть 1 [ZM012007] [2007]\10. Русские Диджеи - Ну, Погоди! (Dance Remix).wav     Pre-gap length  0:00:01.53     Peak level 96.6 %     Extraction speed 5.3 X     Track quality 100.0 %     Test CRC 17D588BD     Copy CRC 17D588BD     Accurately ripped (confidence 1)  [F3A92968]  (AR v2)     Copy OKTrack 11     Filename E:\!Ripped by Andy aka yetiisyou\Русские Диджеи - Назад в СССР. Часть 1 [ZM012007] [2007]\11. Русские Диджеи - Кавказская Пленница. Часть 2.wav     Pre-gap length  0:00:01.53     Peak level 96.6 %     Extraction speed 5.5 X     Track quality 100.0 %     Test CRC 6003EA58     Copy CRC 6003EA58     Accurately ripped (confidence 1)  [6D9752C9]  (AR v2)     Copy OKAll tracks accurately rippedNo errors occurredEnd of status report---- CUETools DB Plugin V2.1.6[CTDB TOCID: _0z_w7UmndUu9pFaUtzRqk1T0I0-] foundSubmit result: _0z_w7UmndUu9pFaUtzRqk1T0I0- has been confirmedTrack | CTDB Status  1   | (1/1) Accurately ripped  2   | (1/1) Accurately ripped  3   | (1/1) Accurately ripped  4   | (1/1) Accurately ripped  5   | (1/1) Accurately ripped  6   | (1/1) Accurately ripped  7   | (1/1) Accurately ripped  8   | (1/1) Accurately ripped  9   | (1/1) Accurately ripped 10   | (1/1) Accurately ripped 11   | (1/1) Accurately ripped==== Log checksum 82BC7B31853A05230D46C24AABA1591C4AA92A5ADED2DADB20454219AF6F27D1 ====

Содержание индексной карты (.CUE)

REM DATE 2007REM DISCID 7C08760BREM COMMENT "ExactAudioCopy v1.3"PERFORMER "Русские Диджеи"TITLE "Назад в СССР. Часть 1"REM COMPOSER ""FILE "01. Русские Диджеи - Иван Васильевич Меняет Профессию. Часть 1 (Звенит Январская Вьюга).wav" WAVE  TRACK 01 AUDIO    TITLE "Иван Васильевич Меняет Профессию. Часть 1 (Звенит Январская Вьюга)"    PERFORMER "Русские Диджеи"    REM COMPOSER ""    INDEX 01 00:00:00  TRACK 02 AUDIO    TITLE "Бриллиантовая Рука. Часть 1 (Песня Про Зайцев). Русская Версия"    PERFORMER "Русские Диджеи"    REM COMPOSER ""    INDEX 00 03:24:13FILE "02. Русские Диджеи - Бриллиантовая Рука. Часть 1 (Песня Про Зайцев). Русская Версия.wav" WAVE    INDEX 01 00:00:00  TRACK 03 AUDIO    TITLE "Чародеи (Три Белых Коня)"    PERFORMER "Русские Диджеи"    REM COMPOSER ""    INDEX 00 03:42:71FILE "03. Русские Диджеи - Чародеи (Три Белых Коня).wav" WAVE    INDEX 01 00:00:00  TRACK 04 AUDIO    TITLE "Иван Васильевич Меняет Профессию. Часть 2 (Вдруг Как В Сказке)"    PERFORMER "Русские Диджеи"    REM COMPOSER ""    INDEX 00 03:26:01FILE "04. Русские Диджеи - Иван Васильевич Меняет Профессию. Часть 2 (Вдруг Как В Сказке).wav" WAVE    INDEX 01 00:00:00  TRACK 05 AUDIO    TITLE "Бриллиантовая Рука. Часть 2 (Остров Невезения)"    PERFORMER "Русские Диджеи"    REM COMPOSER ""    INDEX 00 02:41:23FILE "05. Русские Диджеи - Бриллиантовая Рука. Часть 2 (Остров Невезения).wav" WAVE    INDEX 01 00:00:00  TRACK 06 AUDIO    TITLE "Ну, Погоди! (Снегурочка Ремикс)"    PERFORMER "Русские Диджеи"    REM COMPOSER ""    INDEX 00 03:28:04FILE "06. Русские Диджеи - Ну, Погоди! (Снегурочка Ремикс).wav" WAVE    INDEX 01 00:00:00  TRACK 07 AUDIO    TITLE "Кустурица 2006 Ремикс"    PERFORMER "Русские Диджеи"    REM COMPOSER ""    INDEX 00 03:10:51FILE "07. Русские Диджеи - Кустурица 2006 Ремикс.wav" WAVE    INDEX 01 00:00:00  TRACK 08 AUDIO    TITLE "Бриллиантовая Рука. Часть 1 (Песня Про Зайцев). English Version"    PERFORMER "Русские Диджеи"    REM COMPOSER ""    INDEX 00 03:37:45FILE "08. Русские Диджеи - Бриллиантовая Рука. Часть 1 (Песня Про Зайцев). English Version.wav" WAVE    INDEX 01 00:00:00  TRACK 09 AUDIO    TITLE "Иван Васильевич Меняет Профессию. Часть 2 (Вдруг Как В Сказке). Best Radio Remix"    PERFORMER "Русские Диджеи"    REM COMPOSER ""    INDEX 00 03:43:21FILE "09. Русские Диджеи - Иван Васильевич Меняет Профессию. Часть 2 (Вдруг Как В Сказке). Best Radio Remix.wav" WAVE    INDEX 01 00:00:00  TRACK 10 AUDIO    TITLE "Ну, Погоди! (Dance Remix)"    PERFORMER "Русские Диджеи"    REM COMPOSER ""    INDEX 00 02:41:14FILE "10. Русские Диджеи - Ну, Погоди! (Dance Remix).wav" WAVE    INDEX 01 00:00:00  TRACK 11 AUDIO    TITLE "Кавказская Пленница. Часть 2"    PERFORMER "Русские Диджеи"    REM COMPOSER ""    INDEX 00 02:55:40FILE "11. Русские Диджеи - Кавказская Пленница. Часть 2.wav" WAVE    INDEX 01 00:00:00

Лог проверки качества

-----------------------DON'T MODIFY THIS FILE-----------------------PERFORMER: auCDtect Task Manager, ver. 1.6.0 RC1 build 1.6.0.1Copyright (c) 2008-2010 y-soft. All rights reservedhttp://y-soft.orgANALYZER: auCDtect: CD records authenticity detector, version 0.8.2Copyright (c) 2004 Oleg Berngardt. All rights reserved.Copyright (c) 2004 Alexander Djourik. All rights reserved.FILE: 11. Русские Диджеи - Кавказская Пленница. Часть 2.flac  Size: 23016601 Hash: D83C874B0C227E0150DB58CD387893D9 Accuracy: -m0  Conclusion: CDDA 100%  Signature: 50500987F61E0EFB9FC787562D48183E18DA56A3FILE: 10. Русские Диджеи - Ну, Погоди! (Dance Remix).flac  Size: 22292587 Hash: 7CB8A652FE65C96A687F6A64EE4E3041 Accuracy: -m0  Conclusion: MPEG 98%  Signature: 6CFA1DAD0DD536824B2879780BFDE66509E2B860FILE: 09. Русские Диджеи - Иван Васильевич Меняет Профессию. Часть 2 (Вдруг Как В Сказке). Best Radio Remix.flac  Size: 22499214 Hash: 14D756258A77E8A474D589A0CC379267 Accuracy: -m0  Conclusion: CDDA 99%  Signature: 380027A7F565393D3E615E4AEDCA44AC5239C8E5FILE: 08. Русские Диджеи - Бриллиантовая Рука. Часть 1 (Песня Про Зайцев). English Version.flac  Size: 29541892 Hash: D968579565922AE964BA64EA7D38A017 Accuracy: -m0  Conclusion: MPEG 100%  Signature: 4AE4C4B9505C3BCE22031CFF50AB2A7F5D03920FFILE: 07. Русские Диджеи - Кустурица 2006 Ремикс.flac  Size: 26320994 Hash: 4D50ED667C4B6D21411E384AEABA09EE Accuracy: -m0  Conclusion: MPEG 100%  Signature: 700ED686A1D43D56CA2BA21AC2269549FFBDDC40FILE: 06. Русские Диджеи - Ну, Погоди! (Снегурочка Ремикс).flac  Size: 23437157 Hash: F0DB7867E4FF8983A3D8AFEF35656EF3 Accuracy: -m0  Conclusion: MPEG 79%  Signature: AF669332206274ABE8928FCE7480CE9402EF8E86FILE: 05. Русские Диджеи - Бриллиантовая Рука. Часть 2 (Остров Невезения).flac  Size: 26008321 Hash: 6BC8E5B207B3F3143A507565D34A05E6 Accuracy: -m0  Conclusion: CDDA 99%  Signature: 06BF24B9DC1F5BB58F207B433C0D3B77F7375419FILE: 04. Русские Диджеи - Иван Васильевич Меняет Профессию. Часть 2 (Вдруг Как В Сказке).flac  Size: 21213378 Hash: E9223E7C166437B2D3BF7B3F97D44FA6 Accuracy: -m0  Conclusion: CDDA 100%  Signature: DB3DA4305C596317103DF6A3FE60FEB7D8023716FILE: 03. Русские Диджеи - Чародеи (Три Белых Коня).flac  Size: 29635808 Hash: 36F29786B992E7CEC460121AC5C36158 Accuracy: -m0  Conclusion: CDDA 100%  Signature: 852813BE788335F711780C6AAE441A6DBAA83574FILE: 02. Русские Диджеи - Бриллиантовая Рука. Часть 1 (Песня Про Зайцев). Русская Версия.flac  Size: 28068278 Hash: 1C2F91DD412F93507D1E330A199751B8 Accuracy: -m0  Conclusion: MPEG 100%  Signature: 867B8D6C8AB0B466F4E09F1B215CC4F95F3D936CFILE: 01. Русские Диджеи - Иван Васильевич Меняет Профессию. Часть 1 (Звенит Январская Вьюга).flac  Size: 27268424 Hash: FA3468B23EF9EB7D03315FB758C57A38 Accuracy: -m0  Conclusion: CDDA 100%  Signature: 961DB8A89A889D871D888462B0590CA6F2482854

Скриншот спектра частот

Для скачки контента: [Установить программу-клиент] и кликнуть по - СкачатьБезопасность: клиент проверен АВ Касперского

[asmlocator.ru].t585386.torrent 
Торрент: Зарегистрирован [ 2018-11-09 15:20 ] · 4E71B05E9A909C93325804E3E8D8CDBD28D6322E

Скачать .torrent

Скачать

16 KB

Статус: проверено
Скачан: 0 раз
Размер: 342 MB
terms.php
[Профиль] [ЛС]
Показать сообщения:    
Ответить на тему

Текущее время: 16-Ноя 19:05

Часовой пояс: UTC ± 0



Вы не можете начинать темы
Вы не можете отвечать на сообщения
Вы не можете редактировать свои сообщения
Вы не можете удалять свои сообщения
Вы не можете голосовать в опросах
Вы не можете прикреплять файлы к сообщениям
Вы можете скачивать файлы