Автобус (Екатерина Полякова) [2014, Россия, мультфильм, WEBRip-AVC]

Ответить на тему
Статистика раздачи
Размер:  44 MB   |    Зарегистрирован:  7 дней   |    Скачан:  0 раз

Полного источника не было: Никогда

 
   
 
 
Автор Сообщение

star21 ®

Пол: Женский

Стаж: 3 года

Сообщений: 552917

Откуда: Екатеринбург

Создавать темы 09-Ноя-2018 15:20

[Цитировать]

АвтобусСтрана: Россия
Жанр: мультфильм
Продолжительность: 00:04:41
Год выпуска: 2014
Русские субтитры: нетРежиссёр: Екатерина ПоляковаОписание: Современная сказка про потерявшийся автобус, на помощь которому пришла добрая старушка.Качество: WEBRip-AVC
Формат: MP4
Видео: 1184 kbps, 1280х720 (16:9), 25.000 fps, AVC (High@L3.1)
Аудио: 126 kbps, 44.1 kHz, 2 channels, AAC (LC)
Субтитры: отсутствуют

Подробные технические данные

GeneralComplete name                            : Автобус (2014).mp4Format                                   : MPEG-4Format profile                           : Base Media / Version 2Codec ID                                 : mp42File size                                : 44.0 MiBDuration                                 : 4mn 41sOverall bit rate mode                    : VariableOverall bit rate                         : 1 313 KbpsEncoded date                             : UTC 2016-08-26 12:29:54Tagged date                              : UTC 2016-08-26 12:29:54gsst                                     : 0gstd                                     : 281449VideoID                                       : 1Format                                   : AVCFormat/Info                              : Advanced Video CodecFormat profile                           : Main@L3.1Format settings, CABAC                   : YesFormat settings, ReFrames                : 3 framesCodec ID                                 : avc1Codec ID/Info                            : Advanced Video CodingDuration                                 : 4mn 41sBit rate                                 : 1 184 KbpsWidth                                    : 1 280 pixelsHeight                                   : 720 pixelsDisplay aspect ratio                     : 16:9Frame rate mode                          : ConstantFrame rate                               : 25.000 fpsColor space                              : YUVChroma subsampling                       : 4:2:0Bit depth                                : 8 bitsScan type                                : ProgressiveBits/(Pixel*Frame)                       : 0.051Stream size                              : 39.7 MiB (90%)Title                                    : ISO Media file produced by Google Inc.Encoded date                             : UTC 2016-08-26 12:29:54Tagged date                              : UTC 2016-08-26 12:29:54AudioID                                       : 2Format                                   : AACFormat/Info                              : Advanced Audio CodecFormat profile                           : LCCodec ID                                 : 40Duration                                 : 4mn 41sBit rate mode                            : VariableBit rate                                 : 126 KbpsChannel(s)                               : 2 channelsChannel positions                        : Front: L RSampling rate                            : 44.1 KHzCompression mode                         : LossyStream size                              : 4.21 MiB (10%)Title                                    : ISO Media file produced by Google Inc.Encoded date                             : UTC 2016-08-26 12:29:54Tagged date                              : UTC 2016-08-26 12:29:54

Скриншоты

Для скачки контента: [Установить программу-клиент] и кликнуть по - СкачатьБезопасность: клиент проверен АВ Касперского

[asmlocator.ru].t585370.torrent 
Торрент: Зарегистрирован [ 2018-11-09 15:20 ] · D738978F33FCE729D9F29B1FBB6D1CE548D6EA3C

Скачать .torrent

Скачать

14 KB

Статус: проверено
Скачан: 0 раз
Размер: 44 MB
terms.php
[Профиль] [ЛС]
Показать сообщения:    
Ответить на тему

Текущее время: 16-Ноя 19:04

Часовой пояс: UTC ± 0



Вы не можете начинать темы
Вы не можете отвечать на сообщения
Вы не можете редактировать свои сообщения
Вы не можете удалять свои сообщения
Вы не можете голосовать в опросах
Вы не можете прикреплять файлы к сообщениям
Вы можете скачивать файлы