Человек против киборга / Heatseeker (Альберт Пьюн /Albert Pyun) [1995, США, Боевик, фантастика, WEBRip] AVO (Пётр Карцев) + Original Eng

Ответить на тему
Статистика раздачи
Размер:  1,45 GB   |    Зарегистрирован:  7 дней   |    Скачан:  0 раз

Полного источника не было: Никогда

 
   
 
 
Автор Сообщение

star21 ®

Пол: Женский

Стаж: 3 года

Сообщений: 552917

Откуда: Екатеринбург

Создавать темы 09-Ноя-2018 15:20

[Цитировать]

Человек против киборга / Heatseeker Страна: США
Жанр: Боевик , фантастика
Год выпуска: 1995
Продолжительность: 01:31:24Перевод: Авторский (одноголосый закадровый) Пётр Карцев
Субтитры: нет
Оригинальная аудиодорожка: английскийРежиссер: Альберт Пьюн /Albert PyunВ ролях: Кит Кук
Тина Коте
Норберт Вайссер
Гэри Дэниелс
Том Мэтьюз
Селена Ху
Тони Мабеса
Августо Викта
Тим Томерсон
Бертон РичардсонОписание: 2045 год. Кибертехнологии стали обыденностью. Киборги доминируют везде, в том числе и в профессиональном спорте, но только не в кикбоксинге.
И вот в Лас-Вегасе должен состояться решающий бой между лучшим кикбоксером Чэнсом О’Брайеном и самым современным киборгом КСАО — продуктом могущественной корпорации «Сианон», готовой на все ради мирового лидерства.Доп. информация: За звуковую дорожку П. Карцева спасибо Mixa_12345_mixa , а также мне за синхрон дорожки
Видеоряд найден в сетиСэмпл: https://yadi.sk/i/tyPu6zC-iVdJ-gКачество видео: WEBRip
Формат видео: AVIВидео: XviD , 720x400 (1.80:1), 23.976 fps, 1 870 Kbps
Аудио: AC3 , 48 kHz , 192.00 kbps avg , 2/0 (L,R) ch
Аудио 2: AC3 , 48 kHz , 192.00 kbps avg , 2/0 (L,R) ch

MediaInfo

Complete name              Человек против киборга - Heatseeker 1995 (Karcev).aviFormat                      : AVIFormat/Info                 : Audio Video InterleaveFile size                   : 1.45 GiBDuration                    : 1h 31mnOverall bit rate            : 2 268 KbpsWriting application         : VirtualDubMod 1.5.10.3 | www.virtualdub-fr.org || (build 2550/release)Writing library             : VirtualDubMod build 2550/releaseVideoID                          : 0Format                      : MPEG-4 VisualFormat profile              : Advanced Simple@L5Format settings, BVOP       : 1Format settings, QPel       : NoFormat settings, GMC        : No warppointsFormat settings, Matrix     : CustomCodec ID                    : XVIDCodec ID/Hint               : XviDDuration                    : 1h 31mnBit rate                    : 1 870 KbpsWidth                       : 720 pixelsHeight                      : 400 pixelsDisplay aspect ratio        : 16:9Frame rate                  : 23.976 (23976/1000) fpsColor space                 : YUVChroma subsampling          : 4:2:0Bit depth                   : 8 bitsScan type                   : ProgressiveCompression mode            : LossyBits/(Pixel*Frame)          : 0.271Stream size                 : 1.19 GiB (82%)Writing library             : XviD 73Audio #1ID                          : 1Format                      : AC-3Format/Info                 : Audio Coding 3Mode extension              : CM (complete main)Format settings, Endianness : BigCodec ID                    : 2000Duration                    : 1h 31mnBit rate mode               : ConstantBit rate                    : 192 KbpsChannel(s)                  : 2 channelsChannel positions           : Front: L RSampling rate               : 48.0 KHzFrame rate                  : 31.250 fps (1536 spf)Compression mode            : LossyStream size                 : 126 MiB (8%)Alignment                   : Split accross interleavesInterleave, duration        : 42 ms (1.00 video frame)Interleave, preload duratio : 500 msAudio #2ID                          : 2Format                      : AC-3Format/Info                 : Audio Coding 3Mode extension              : CM (complete main)Format settings, Endianness : BigCodec ID                    : 2000Duration                    : 1h 31mnBit rate mode               : ConstantBit rate                    : 192 KbpsChannel(s)                  : 2 channelsChannel positions           : Front: L RSampling rate               : 48.0 KHzFrame rate                  : 31.250 fps (1536 spf)Compression mode            : LossyStream size                 : 126 MiB (8%)Alignment                   : Split accross interleavesInterleave, duration        : 42 ms (1.00 video frame)Interleave, preload duratio : 500 ms

Для скачки контента: [Установить программу-клиент] и кликнуть по - СкачатьБезопасность: клиент проверен АВ Касперского

[asmlocator.ru].t585367.torrent 
Торрент: Зарегистрирован [ 2018-11-09 15:20 ] · 08329D5AAE9EEF5EC1F49AD83E9A72EA0B773E47

Скачать .torrent

Скачать

15 KB

Статус: проверено
Скачан: 0 раз
Размер: 1,45 GB
terms.php
[Профиль] [ЛС]
Показать сообщения:    
Ответить на тему

Текущее время: 16-Ноя 19:05

Часовой пояс: UTC ± 0



Вы не можете начинать темы
Вы не можете отвечать на сообщения
Вы не можете редактировать свои сообщения
Вы не можете удалять свои сообщения
Вы не можете голосовать в опросах
Вы не можете прикреплять файлы к сообщениям
Вы можете скачивать файлы