Рыжая белка / La ardilla roja / The Red Squirrel (Хулио Медем / Julio Medem) [1993, Испания, драма, комедия, HDRip] AVO (Антон Алексеев)

Ответить на тему
Статистика раздачи
Размер:  2,05 GB   |    Зарегистрирован:  7 дней   |    Скачан:  0 раз

Полного источника не было: Никогда

 
   
 
 
Автор Сообщение

star21 ®

Пол: Женский

Стаж: 3 года

Сообщений: 552917

Откуда: Екатеринбург

Создавать темы 09-Ноя-2018 15:20

[Цитировать]

Рыжая белка / La ardilla roja / The Red Squirrel Страна: Испания
Жанр: драма, комедия
Год выпуска: 1993
Продолжительность: 01:54:38Перевод: Авторский (одноголосый закадровый) Антон Алексеев
Субтитры: нет
Режиссер: Хулио Медем / Julio MedemВ ролях: Эмма Суарес, Нанчо Ново, Мария Барранко, Карра Элехальде, Кармело Гомес, Кристина Маркос, Моника Молина, Ана ГрасиаОписание: Летний вечер в Сан-Себастьяне. Хота в ярости бьет ногами ограду пляжа: он никак не может собраться с мужеством и броситься с рифа. Внезапно в другой конец ограды врезается мотоцикл, и Хота видит, как водитель падает на песок. Он бежит помочь ему и обнаруживает, что это девушка. Она потеряла память, не может вспомнить ни своего имени, ни откуда она, ни даже цвет своих глаз. Иногда о прошлом Лисы можно догадаться, когда у нее буквально встают волосы на теле, выдавая ее страх при воспоминании о ком-то, чье присутствие она ощущает и вздрагивает при мысли об этом ненормальном, который, возможно, кружит рядом на красной машине. Хота чинит мотоцикл и убеждает Лису сбежать из больницы. Они едут в кемпинг под названием «Рыжая белка». В этом кемпинге, окруженном лесом белых деревьев, среди сосен, где обитают маленькие и очень сообразительные резвые существа, развивается история любви и разочарований между двумя совершенно незнакомыми. Сэмпл: https://yadi.sk/i/6Fu-eeVfkbIevAКачество видео: НDRip (Исходник - BDRip 720p)
Формат видео: AVIВидео: XviD 73, 720x384, (1,85:1), 23,976 fps, 2163 Кбит/с, 8 бит, 0.32 bit/pixel
Аудио: Русский (АС3, 6 ch (Front: L C R, Side: L R, LFE), 48,0 KHz, 384 Kbps)

MediaInfo

бщееПолное имя                               : G:\Рыжая белка   (драма, комедия 1993 год).aviФормат                                   : AVIФормат/Информация                        : Audio Video InterleaveПрофиль формата                          : OpenDMLРазмер файла                             : 2,05 ГбайтПродолжительность                        : 1 ч. 54 м.Общий поток                              : 2560 Кбит/секПрограмма кодирования                    : VirtualDubMod 1.5.10.3 | www.virtualdub-fr.org || (build 2550/release)Библиотека кодирования                   : VirtualDubMod build 2550/releaseВидеоИдентификатор                            : 0Формат                                   : MPEG-4 VisualПрофиль формата                          : Advanced Simple@L5Параметр BVOP формата                    : 2Параметр QPel формата                    : НетПараметр GMC формата                     : Без точки переходаПараметр матрицы формата                 : ВыборочнаяИдентификатор кодека                     : XVIDИдентификатор кодека/Подсказка           : XviDПродолжительность                        : 1 ч. 54 м.Битрейт                                  : 2163 Кбит/секШирина                                   : 720 пикселейВысота                                   : 384 пикселяСоотношение сторон                       : 1,85:1Частота кадров                           : 24,000 кадра/секЦветовое пространство                    : YUVСубдискретизация насыщенности            : 4:2:0Битовая глубина                          : 8 битТип развёртки                            : ПрогрессивнаяМетод сжатия                             : С потерямиБит/(Пиксели*Кадры)                      : 0.326Размер потока                            : 1,73 Гбайт (85%)Библиотека кодирования                   : XviD 73АудиоИдентификатор                            : 1Формат                                   : AC-3Формат/Информация                        : Audio Coding 3Расширение режима                        : CM (complete main)Параметр Endianness формата              : BigИдентификатор кодека                     : 2000Продолжительность                        : 1 ч. 54 м.Вид битрейта                             : ПостоянныйБитрейт                                  : 384 Кбит/секКаналы                                   : 6 каналовРасположение каналов                     : Front: L C R, Side: L R, LFEЧастота                                  : 48,0 КГцЧастота кадров                           : 31,250 кадров/сек (1536 spf)Метод сжатия                             : С потерямиРазмер потока                            : 315 Мбайт (15%)Выравнивание                             : Разделение по промежуткамПродолжительность промежутка             : 42  мс. (1,00 видеокадр)Время предзагрузки промежутка            : 500  мс.

Скриншот c названием фильма

Скриншоты

Для скачки контента: [Установить программу-клиент] и кликнуть по - СкачатьБезопасность: клиент проверен АВ Касперского

[asmlocator.ru].t585360.torrent 
Торрент: Зарегистрирован [ 2018-11-09 15:20 ] · B6F58A80716A38B9FF3A80970CFFAB01A0B5EEE3

Скачать .torrent

Скачать

11 KB

Статус: проверено
Скачан: 0 раз
Размер: 2,05 GB
terms.php
[Профиль] [ЛС]
Показать сообщения:    
Ответить на тему

Текущее время: 16-Ноя 19:04

Часовой пояс: UTC ± 0



Вы не можете начинать темы
Вы не можете отвечать на сообщения
Вы не можете редактировать свои сообщения
Вы не можете удалять свои сообщения
Вы не можете голосовать в опросах
Вы не можете прикреплять файлы к сообщениям
Вы можете скачивать файлы