Рыжая белка / La ardilla roja / The Red Squirrel (Хулио Медем / Julio Medem) [1993, Испания, драма, комедия, HDRip] AVO (Антон Алексеев)

Reply to topic
DL-List and Torrent activity
Size:  2.05 GB   |    Registered:  5 months 12 days   |    Completed:  0 times

Seeder not seen: Never

 
   
 
 
Author Message

star21 ®

Gender: Female

Longevity: 3 years 5 months

Posts: 552392

Location: Екатеринбург

Post 09-Nov-2018 15:20

[Quote]

Рыжая белка / La ardilla roja / The Red Squirrel Страна: Испания
Жанр: драма, комедия
Год выпуска: 1993
Продолжительность: 01:54:38Перевод: Авторский (одноголосый закадровый) Антон Алексеев
Субтитры: нет
Режиссер: Хулио Медем / Julio MedemВ ролях: Эмма Суарес, Нанчо Ново, Мария Барранко, Карра Элехальде, Кармело Гомес, Кристина Маркос, Моника Молина, Ана ГрасиаОписание: Летний вечер в Сан-Себастьяне. Хота в ярости бьет ногами ограду пляжа: он никак не может собраться с мужеством и броситься с рифа. Внезапно в другой конец ограды врезается мотоцикл, и Хота видит, как водитель падает на песок. Он бежит помочь ему и обнаруживает, что это девушка. Она потеряла память, не может вспомнить ни своего имени, ни откуда она, ни даже цвет своих глаз. Иногда о прошлом Лисы можно догадаться, когда у нее буквально встают волосы на теле, выдавая ее страх при воспоминании о ком-то, чье присутствие она ощущает и вздрагивает при мысли об этом ненормальном, который, возможно, кружит рядом на красной машине. Хота чинит мотоцикл и убеждает Лису сбежать из больницы. Они едут в кемпинг под названием «Рыжая белка». В этом кемпинге, окруженном лесом белых деревьев, среди сосен, где обитают маленькие и очень сообразительные резвые существа, развивается история любви и разочарований между двумя совершенно незнакомыми. Сэмпл: https://yadi.sk/i/6Fu-eeVfkbIevAКачество видео: НDRip (Исходник - BDRip 720p)
Формат видео: AVIВидео: XviD 73, 720x384, (1,85:1), 23,976 fps, 2163 Кбит/с, 8 бит, 0.32 bit/pixel
Аудио: Русский (АС3, 6 ch (Front: L C R, Side: L R, LFE), 48,0 KHz, 384 Kbps)

MediaInfo

бщееПолное имя                               : G:\Рыжая белка   (драма, комедия 1993 год).aviФормат                                   : AVIФормат/Информация                        : Audio Video InterleaveПрофиль формата                          : OpenDMLРазмер файла                             : 2,05 ГбайтПродолжительность                        : 1 ч. 54 м.Общий поток                              : 2560 Кбит/секПрограмма кодирования                    : VirtualDubMod 1.5.10.3 | www.virtualdub-fr.org || (build 2550/release)Библиотека кодирования                   : VirtualDubMod build 2550/releaseВидеоИдентификатор                            : 0Формат                                   : MPEG-4 VisualПрофиль формата                          : Advanced Simple@L5Параметр BVOP формата                    : 2Параметр QPel формата                    : НетПараметр GMC формата                     : Без точки переходаПараметр матрицы формата                 : ВыборочнаяИдентификатор кодека                     : XVIDИдентификатор кодека/Подсказка           : XviDПродолжительность                        : 1 ч. 54 м.Битрейт                                  : 2163 Кбит/секШирина                                   : 720 пикселейВысота                                   : 384 пикселяСоотношение сторон                       : 1,85:1Частота кадров                           : 24,000 кадра/секЦветовое пространство                    : YUVСубдискретизация насыщенности            : 4:2:0Битовая глубина                          : 8 битТип развёртки                            : ПрогрессивнаяМетод сжатия                             : С потерямиБит/(Пиксели*Кадры)                      : 0.326Размер потока                            : 1,73 Гбайт (85%)Библиотека кодирования                   : XviD 73АудиоИдентификатор                            : 1Формат                                   : AC-3Формат/Информация                        : Audio Coding 3Расширение режима                        : CM (complete main)Параметр Endianness формата              : BigИдентификатор кодека                     : 2000Продолжительность                        : 1 ч. 54 м.Вид битрейта                             : ПостоянныйБитрейт                                  : 384 Кбит/секКаналы                                   : 6 каналовРасположение каналов                     : Front: L C R, Side: L R, LFEЧастота                                  : 48,0 КГцЧастота кадров                           : 31,250 кадров/сек (1536 spf)Метод сжатия                             : С потерямиРазмер потока                            : 315 Мбайт (15%)Выравнивание                             : Разделение по промежуткамПродолжительность промежутка             : 42  мс. (1,00 видеокадр)Время предзагрузки промежутка            : 500  мс.

Скриншот c названием фильма

Скриншоты


To download the content you need:
1. Download and install torrent client [for Windows] or for mobile system
2. Click on [Download]
Attention.
If the test YOU are NOT a ROBOT - does not work, then You are using an outdated browser.
Install the current browser and click on [Download]
Security: torrent client is allowed by Kaspersky.

[asmlocator.ru].t585360.torrent 
Torrent: Registered [ 2018-11-09 15:20 ] · B6F58A80716A38B9FF3A80970CFFAB01A0B5EEE3

Download .torrent

Download

11 KB

Status: checked
Completed: 0 times
Size: 2.05 GB
terms.php
[Profile] [PM]
Display posts:    
Reply to topic

Current time is: 22-Apr 05:05

All times are UTC ± 0



You cannot post new topics in this forum
You cannot reply to topics in this forum
You cannot edit your posts in this forum
You cannot delete your posts in this forum
You cannot vote in polls in this forum
You cannot attach files in this forum
You can download files in this forum